<?xml version="1.0" standalone="no"?>
<!DOCTYPE svg PUBLIC "-//W3C//DTD SVG 1.1//EN" "http://www.w3.org/Graphics/SVG/1.1/DTD/svg11.dtd" >
<svg xmlns="http://www.w3.org/2000/svg">
<metadata>Generated by IcoMoon</metadata>
<defs>
<font id="icomoon" horiz-adv-x="1024">
<font-face units-per-em="1024" ascent="960" descent="-64" />
<missing-glyph horiz-adv-x="1024" />
<glyph unicode="&#x20;" horiz-adv-x="512" d="" />
<glyph unicode="&#xe900;" glyph-name="all1" d="M384 864h-192c-53.019 0-96-42.981-96-96v-192c0-53.018 42.981-96 96-96h192c53.018 0 96 42.982 96 96v192c0 53.019-42.982 96-96 96zM832 864h-192c-53.018 0-96-42.981-96-96v-192c0-53.018 42.982-96 96-96h192c53.018 0 96 42.982 96 96v192c0 53.019-42.982 96-96 96zM384 416h-192c-53.019 0-96-42.982-96-96v-192c0-53.018 42.981-96 96-96h192c53.018 0 96 42.982 96 96v192c0 53.018-42.982 96-96 96zM736 32c106.039 0 192 85.961 192 192s-85.961 192-192 192c-106.039 0-192-85.961-192-192s85.961-192 192-192z" />
<glyph unicode="&#xe901;" glyph-name="ebet" d="M900.518 394.654c0 0 176.99 440.555-229.794 477.701-406.781 37.146-620.186-382.234-580.855-618.112 30.591-185.361 137.293-232.909 305.177-232.909 211.222 0 418.070 156.386 475.247 258.539h-218.871c0 0-110.345-82.466-222.874-82.466-77.203 0-168.611 49.775-148.945 197.619l620.915-0.371zM586.965 705.939c165.7 12.63 171.524-159.357 171.524-159.357h-424.989c0 0 87.766 146.356 253.465 159.357z" />
<glyph unicode="&#xe902;" glyph-name="evo" d="M213.43 319.159c0 25.975 0.198 51.947-0.092 77.922-0.118 10.342 2.158 15.573 9.395 16.913 20.198 3.772 40.382 7.876 60.488 12.71 28.303 6.81 56.816 11.371 85.119 18.359 13.369 3.294 26.856 6.391 40.329 8.307 16.592 2.351 32.923 7.223 49.46 9.988 26.095 4.361 51.977 11.366 77.973 16.934 32.503 6.925 65.041 13.478 97.557 20.288 23.616 4.954 47.211 10.048 70.814 15.121 4.211 0.905 6.054-0.849 4.173-7.462-6.686-23.526-13.436-47.014-20.041-70.579-6.857-24.435-13.525-48.969-20.369-73.382-3.554-12.693-7.223-25.323-11.012-37.858-1.344-4.42-3.921-7.104-7.159-7.834-17.301-3.887-34.59-8.034-51.947-11.426-32.132-6.298-64.201-13.402-96.316-19.78-28.198-5.602-56.29-12.373-84.555-17.289-29.119-5.052-58.040-12.553-87.080-18.611-28.829-5.999-57.711-11.426-86.554-17.31-6.934-1.421-13.789-3.87-20.711-5.427-7.684-1.737-9.079 0.038-9.118 11.507-0.092 26.308-0.026 52.599-0.026 78.908-0.118 0-0.224 0-0.329 0zM213.36 547.47c0 27.276 0.040 54.553-0.026 81.81-0.026 9.217 2.5 14.033 8.869 16.283 16.355 5.763 32.54 12.711 48.803 19.145 13.527 5.349 27.053 10.658 40.593 15.908 15.237 5.921 30.5 11.665 45.724 17.625 22.211 8.684 44.395 17.447 66.58 26.289 20.907 8.349 41.75 16.974 62.673 25.204 9.276 3.651 18.697 6.415 27.985 10.026 14.37 5.605 28.659 11.665 43.012 17.388 15.198 6.039 30.434 11.842 45.645 17.842 15.62 6.158 31.215 12.493 46.844 18.671 14.37 5.665 28.766 11.191 43.145 16.816 14.805 5.783 29.594 11.645 44.382 17.447 9.293 3.632 18.594 7.125 27.857 10.836 10.752 4.303 21.423 9.138 32.252 13.026 3.853 1.382 8.986 5.448 11.814 0.474 2.935-5.151-0.883-11.348-2.513-17.033-8.474-29.546-16.619-59.31-25.028-88.896-8.905-31.322-18.577-62.211-26.684-93.988-3.422-13.401-9.092-16.954-17.327-19.816-20.211-7.026-40.158-15.71-60.267-23.447-15.629-6.039-31.369-11.526-47.010-17.526-14.831-5.665-29.581-11.744-44.399-17.467-16.299-6.296-32.657-12.336-48.96-18.632-27.738-10.717-55.433-21.671-83.183-32.309-15.266-5.842-30.633-11.052-45.897-16.854-20.566-7.817-41.066-15.97-61.619-23.885-16.921-6.511-33.882-12.77-50.79-19.362-14.395-5.602-28.619-12.275-43.132-17.033-10.25-3.354-19.961-9.728-30.487-11.328-7.566-1.143-8.553-0.256-8.566 10.953-0.040 27.277 0 54.575 0 81.851l-0.29-0.020zM390.87 7.164c-55.882 0-111.764 0-167.646 0-9 0-9.79 1.007-9.803 14.528-0.066 51.614-0.105 103.223-0.079 154.837 0 12.237 1.013 13.636 9.053 13.636 114.172-0.017 228.358-0.060 342.529-0.098 14.686 0 29.367 0.119 44.041 0 7.172-0.060 8.96-3.452 6.195-13.342-6.75-24.179-14.012-48.038-20.907-72.137-7.066-24.691-13.961-49.523-20.907-74.291-1.604-5.743-3.213-11.486-4.608-17.331-1.118-4.655-3.575-5.427-6.289-5.525-5.696-0.179-11.392-0.256-17.092-0.256-51.499 0-102.985-0.021-154.487-0.021z" />
<glyph unicode="&#xe903;" glyph-name="evolution" d="M730.189 714.911c1.148-1.707 2.295-3.413 3.546-5.12v-0.61c4.058-24.381 6.865-49.371 6.865-74.971 0-6.923-0.166-13.804-0.499-20.643 0.35 7.057 0.529 14.157 0.529 21.295 0 25.6-2.496 50.59-6.865 74.971 23.718-33.829 42.133-70.095 54.929-109.41 10.3-32 17.165-64.305 20.284-97.524 0.311-4.267 0.939-8.836 1.562-13.103v-3.051c-1.647-0.158-3.268-0.341-4.881-0.521-4.51-0.503-8.934-1.003-13.534-1.003l0.316 0.307c-7.65-0.265-15.27-0.58-22.878-0.892-18.722-0.772-37.376-1.54-56.188-1.549-0.077-0.218-0.158-0.435-0.239-0.653h-9.673c-24.034 0-47.753 0.917-71.471 2.743-47.437 3.657-94.251 11.584-139.814 26.21-42.133 13.41-81.145 32.61-116.099 59.734-26.528 20.724-49.31 44.8-68.972 71.924-19.974 27.429-36.515 56.99-50.871 87.771-11.001 23.314-21.476 46.629-31.95 69.943-3.491 7.771-6.983 15.543-10.494 23.314-0.098 0.191-0.196 0.323-0.284 0.441-0.193 0.259-0.34 0.456-0.34 1.083 8.739 4.267 17.789 8.533 26.84 12.495 30.897 13.714 63.042 23.467 96.748 29.867 18.726 3.352 37.763 5.486 56.8 6.095 0.937 0 3.433 0.61 3.433 0.61h26.528c0.937-0.305 1.873-0.61 3.121-0.61 22.784-0.609 45.253-3.657 67.725-8.228 36.203-7.619 70.532-19.81 103.3-36.876 50.249-26.514 92.689-61.867 127.019-106.362 2.061-2.56 3.785-5.12 5.508-7.68zM679.59 412.062c23.987 0.606 47.97 0.602 71.642-0.004v0.61c11.234-0.367 22.468-1.062 33.707-1.758 7.488-0.461 14.98-0.926 22.468-1.293h3.123v-3.959c-0.627-4.57-1.25-9.143-1.562-13.713-2.496-26.517-7.492-52.117-14.669-77.717-14.357-52.416-38.076-100.57-71.782-143.846-31.829-40.533-70.532-73.446-116.096-98.743-33.707-18.893-69.909-32.61-107.985-40.836-29.022-6.4-58.671-9.451-88.32-9.451-45.253 0-89.57 7.317-132.638 21.641-21.534 7.010-42.444 15.846-62.73 26.21-0.312 0.303-0.624 0.61-1.248 0.913 1.092 2.436 2.185 4.954 3.277 7.467s2.185 5.030 3.277 7.467c3.355 7.313 6.691 14.63 10.026 21.943 10.007 21.943 20.013 43.887 30.546 65.826 1.361 3.038 2.963 5.956 4.582 8.905 0.98 1.788 1.967 3.584 2.908 5.423l0.301 0.273c8.738 17.067 18.413 33.83 29.024 50.287 16.229 24.99 35.267 47.846 57.425 68.267 29.337 27.123 63.043 47.846 99.867 63.697 33.084 14.016 67.413 24.073 102.677 30.17 21.222 3.657 42.761 6.703 63.979 8.836v0.307c18.415 1.826 37.141 2.743 55.868 3.354h2.496l-0.162-0.273z" />
<glyph unicode="&#xe904;" glyph-name="hogaming" d="M425.533 598.187c30.936 28.061 62.1 56.332 86.479 89.147 24.375-32.815 55.543-61.086 86.477-89.147 63.927-57.99 126.865-115.085 126.865-209.527 0-66.039-49.562-119.573-110.694-119.573-45.286 0-84.087 29.444-101.231 71.514 12.971-116.156 97.754-131.819 97.754-131.819h-198.345c0 0 84.784 15.663 97.754 131.819-17.143-42.069-55.945-71.514-101.228-71.514-61.136 0-110.697 53.534-110.697 119.573 0 94.443 62.939 151.537 126.867 209.527zM938.667 448c0 235.642-191.027 426.667-426.667 426.667-235.642 0-426.667-191.025-426.667-426.667 0-235.639 191.025-426.667 426.667-426.667 235.639 0 426.667 191.027 426.667 426.667zM874.667 448c0-200.294-162.372-362.667-362.667-362.667s-362.667 162.372-362.667 362.667c0 200.295 162.371 362.667 362.667 362.667s362.667-162.371 362.667-362.667z" />
<glyph unicode="&#xe905;" glyph-name="micro" d="M704.606 463.744c27.806-42.923 56.316-87.851 85.884-132.070 6.925-10.231 16.896-18.697 26.517-26.697 3.051-2.586 10.675-2.94 13.961-0.823 2.466 1.532 3.639 10.351 1.527 13.175-56.201 78.323-69.931 169.822-82.603 261.787-3.401 24.462-13.726 36.105-32.614 38.692-21.239 2.94-34.027-6.586-45.525-29.754-43.413-87.498-86.592-175.114-132.113-261.552-12.437-23.642-31.565-43.985-49.399-64.213-13.137-15.053-20.531-14.114-26.513 4.467-9.856 31.283-19.008 63.275-23.467 95.616-13.611 97.493-8.567 195.693-4.343 293.54 1.173 28.343 5.867 56.568 7.275 85.029 1.293 25.873-10.91 43.984-29.449 47.983-22.058 4.704-38.015-3.763-50.335-28.695-72.628-147.359-161.094-285.19-252.612-421.263-1.76-2.586-3.872-4.937-9.269-11.759-5.397 27.166-12.202 49.745-14.197 72.798-9.738 113.489 15.018 218.157 86.355 308.948 71.219 90.673 163.206 147.477 278.308 161.707 168.367 20.698 306.816-36.222 406.195-173.938 173.884-241.088 52.8-581.44-233.839-658.825-143.962-38.925-275.843-8.465-390.122 88.674-25.93 21.995-46.345 50.338-69.694 75.388-8.8 9.523-7.626 17.050-1.173 27.87 51.625 85.38 102.547 170.999 153.468 256.849 10.794 18.112 20.298 36.928 30.388 55.511l6.336-0.235c0-27.048-0.352-54.098 0-81.149 1.173-68.796 5.514-137.361 27.924-203.221 5.632-16.7 13.728-33.165 23.818-47.509 29.333-42.223 84.83-50.453 125.542-19.055 38.485 29.756 63.829 70.447 87.296 111.962 30.857 54.566 59.601 110.43 86.588 160.883l-0.115-0.119z" />
<glyph unicode="&#xe906;" glyph-name="pracmatic" d="M487.373 652.707c197.035-0.172 357.525-161.434 357.18-358.943-0.384-196.646-162.249-357.909-359.198-357.781-198.195 0.175-358.039 161.562-357.353 360.875 0.644 198.153 160.102 356.064 359.371 355.892v-0.043zM166.868 294.669c0.215-177.28 143.353-320.375 320.031-319.906 174.793 0.474 319.002 145.289 318.874 320.119-0.128 176.55-143.697 319.174-321.148 319.088-175.95-0.086-317.972-142.793-317.757-319.301zM154 798.223c60.682 0.086 101.352-34.442 138.758-82.756-15.375 81.855-27.743 160.016-21.473 244.533 51.621-64.376 84.303-134.249 118.144-204.765 4.939 25.681 7.687 51.449 18.724 75.026 11.295 24.135 26.112 45.479 47.326 61.971 5.069-2.921 3.264-6.571 2.146-9.405-23.36-59.093-24.649-119.604-10.005-180.587 3.136-13.012 0.99-15.16-11.507-16.362-52.31-4.939-102.17-18.767-147.735-45.694-8.375-4.939-12.583-5.712-16.663 5.153-23.234 61.67-60.596 112.69-116.083 149.537-0.859 0.559-0.859 2.448-1.245 3.694l-0.343-0.301-0.043-0.043zM542.967 563.227c55.27-0.472 103.885-34.186 114.236-79.233 5.969-26.027-4.297-46.985-28.258-57.677-45.995-20.531-113.463-2.193-142.583 39.121-14.771 20.958-22.114 44.237-9.792 68.285 13.658 26.626 39.684 29.847 66.355 29.504h0.043z" />
<glyph unicode="&#xe907;" glyph-name="saba" d="M175.348 272.034c13.437-29.517 28.856-58.091 46.15-85.53l9.029-13.291c-8.682 22.741-16.134 45.931-22.322 69.474-11.287 9.532-22.323 19.315-32.857 29.346zM257.449 466.893c-1.717-16.666-2.555-33.412-2.508-50.163 0.066-43.964 5.456-87.757 16.052-130.428 66.927-54.703 147.15-90.705 232.508-104.337 23.057-3.759 46.366-5.769 69.726-6.020 44.966 11.046 87.829 29.346 126.912 54.178-87.334 1.237-173.103 23.381-250.125 64.572-77.020 41.195-143.051 100.241-192.564 172.198zM233.291 304.013c11.063-24.427 23.802-48.060 38.124-70.729l7.525-11.29c-7.314 18.85-13.512 38.11-18.56 57.69-9.28 7.774-18.31 15.799-27.088 24.329zM276.151 266.761c7.735-25.728 17.29-50.876 28.593-75.247 70.415-26.287 146.2-34.897 220.717-25.079l-25.079 3.26c-81.626 13.299-158.673 46.652-224.231 97.067zM255.878 298.987c-8.506 38.549-12.795 77.905-12.791 117.38-0.048 21.551 1.292 43.085 4.013 64.461-26.552 41.045-47.394 85.515-61.952 132.181-10.521-94.912 1.776-190.963 35.866-280.162 11.036-11.789 22.825-23.326 34.863-33.86zM485.116 440.448h-38.626v-34.611h38.878c2.342-0.047 4.668 0.397 6.827 1.306s4.105 2.257 5.713 3.959c1.626 1.655 2.901 3.618 3.763 5.769 0.862 2.155 1.289 4.454 1.254 6.771 0.081 2.317-0.333 4.621-1.212 6.767-0.879 2.142-2.206 4.075-3.891 5.662-1.685 1.591-3.691 2.803-5.879 3.558-2.193 0.755-4.518 1.033-6.827 0.819zM512 832c-75.947 0-150.191-22.521-213.339-64.716s-112.367-102.167-141.431-172.334c-29.064-70.167-36.669-147.377-21.852-221.865s51.389-142.912 105.092-196.617c53.703-53.7 122.126-90.274 196.615-105.092 74.487-14.814 151.697-7.211 221.867 21.854 70.165 29.065 130.138 78.281 172.331 141.431 42.197 63.147 64.717 137.391 64.717 213.338-0.068 101.823-40.546 199.456-112.546 271.456-71.996 72-169.63 112.478-271.454 112.544zM793.916 358.959h-47.403l-53.171 98.321-110.861-40.132 37.619 68.224 50.163 92.551 123.652-218.964zM658.726 737.693l105.344-192.125h-47.654l-46.4 85.779-85.278-27.339 73.988 133.685zM568.934 574.161l57.941 18.56-25.084-47.153h-48.158l15.3 28.593zM566.677 388.305l57.941 17.306-25.084-47.151h-47.654l14.797 29.845zM546.112 498.163c0.337-14.455-4.766-28.506-14.298-39.377 9.506-10.59 14.618-24.401 14.298-38.626 0-15.987-6.336-31.326-17.617-42.654s-26.59-17.728-42.581-17.792h-81.012v152.243h42.638v-31.1h38.374c4.706 0.064 9.195 1.963 12.523 5.286 3.324 3.328 5.222 7.817 5.286 12.523-0.572 4.966-2.385 9.707-5.265 13.794 13.824 4.036 26.47 11.349 36.868 21.318 6.754-10.677 10.483-22.987 10.786-35.616zM521.028 739.449v-43.391h-69.222c-2.372 0-4.723-0.467-6.912-1.375-2.193-0.908-4.181-2.238-5.858-3.915s-3.008-3.668-3.917-5.859c-0.905-2.191-1.374-4.539-1.374-6.911s0.469-4.72 1.374-6.911c0.909-2.191 2.24-4.182 3.917-5.859s3.665-3.007 5.858-3.915c2.189-0.908 4.54-1.375 6.912-1.375h21.568c16.256-0.131 31.812-6.647 43.307-18.143s18.014-27.050 18.142-43.307c-0.324-16.102-6.938-31.439-18.419-42.733s-26.923-17.652-43.029-17.713h-68.472v43.14h68.472c4.791 0 9.382 1.903 12.77 5.289s5.291 7.98 5.291 12.769c0 4.79-1.903 9.383-5.291 12.77s-7.979 5.289-12.77 5.289h-21.568c-16.299 0-31.929 6.474-43.453 17.998s-17.999 27.154-17.999 43.452c0 16.297 6.474 31.927 17.999 43.452s27.155 17.999 43.453 17.999l69.222-0.753zM822.007 237.815c-5.013-7.522-10.534-15.049-16.303-22.071-70.037-35.226-147.337-53.606-225.732-53.675h-5.769c-36.105-8.926-73.169-13.389-110.362-13.295h-16.802c-44.883 1.894-89.245 10.347-131.68 25.084 26.885-31.74 57.737-59.895 91.799-83.772-12.29 3.759-25.082 8.026-36.368 12.791-12.541 10.283-25.082 21.069-35.867 32.354 5.016-8.026 10.033-15.799 15.3-23.326-63.63 30.801-117.399 78.75-155.255 138.449 26.134-19.81 54.401-36.634 84.274-50.163-5.769 8.277-11.537 16.555-17.055 25.084-19.941 31.731-36.741 65.335-50.164 100.326-19.869 21.572-38.064 44.634-54.427 68.975-6.521 10.031-12.792 20.314-18.811 30.601v25.079c-0.072 67.46 18.13 133.679 52.672 191.624 13.277-50.478 33.897-98.732 61.199-143.215 18.068 118.665 74.751 228.065 161.275 311.261 7.776 2.257 15.552 4.013 23.578 5.769-97.603-85.943-160.702-204.387-177.579-333.333 48.692-74.564 115.187-135.825 193.481-178.257 78.298-42.432 165.926-64.7 254.98-64.785h10.283c44.48 30.485 82.061 69.969 110.319 115.895 28.254 45.926 46.554 97.276 53.713 150.72 2.803-18.765 4.228-37.709 4.267-56.683 0.026-74.351-22.161-147.017-63.71-208.678-33.011-7.019-66.59-11.046-100.326-12.041-31.966-22.11-66.714-39.902-103.334-52.924 70.473 5.918 138.871 26.782 200.653 61.201l1.754 1.003z" />
<glyph unicode="&#xe908;" glyph-name="techplay" d="M128 485.205l169.709 95.85 202.775-354.295-267.341-153.327c-46.73-26.803-105.143 6.699-105.143 60.301v351.471zM128 525.252v279.679c0 53.603 58.413 87.104 105.143 60.303l246.499-141.374-351.642-198.607zM514.825 703.681l-186.648-105.418 202.661-354.091 287.45 164.86c46.729 26.799 46.729 93.803 0 120.602l-303.462 174.047z" />
<glyph unicode="&#xe909;" glyph-name="vivo" d="M938.611 446.699c-1.937-232.934-186.462-423.283-424.444-425.348-235.012-2.065-429.35 189.961-428.833 424.96 0.517 233.967 188.914 425.218 418.243 428.316 238.242 3.226 435.806-185.574 435.034-427.927zM499.319 286.933h0.384c0 50.458-0.384 101.047 0.26 151.505 0.128 11.614-3.746 18.581-13.687 24.26-88.195 50.458-176.389 101.047-264.196 152.021-14.85 8.646-17.949 4.259-17.819-11.098 0.516-101.047 0.646-201.962 0.387-303.009 0-10.97 4.649-16.132 12.783-22.583 21.693-17.293 47.777-26.581 71.279-40.521 64.435-38.327 130.161-74.59 194.852-112.661 16.141-9.549 16.013-1.677 15.885 10.453-0.128 50.458 0 101.047 0 151.505l-0.128 0.128zM805.222 646.854c-5.167 3.613-7.492 5.936-10.462 7.098-90.001 37.682-180.002 75.236-270.135 112.918-9.165 3.872-17.69 3.485-27.115-0.516-71.795-30.585-143.978-60.266-215.644-90.98-19.369-8.259-40.029-14.066-57.978-26.068 1.808-2.323 2.324-3.742 3.229-4.387 91.293-53.169 182.586-106.208 273.751-159.503 9.553-5.551 17.562-3.358 26.342 1.677 53.585 30.972 107.302 61.684 160.892 92.527 38.353 21.938 76.574 44.006 116.86 67.235h0.26zM526.562 288.226h0.388c0-50.462 0.26-101.047-0.128-151.505 0-14.195 1.293-20.134 17.301-10.714 85.871 50.33 172.13 100.015 258.645 149.312 12.655 7.228 17.946 15.488 17.818 30.327-0.516 96.917 0 193.963-0.128 290.877 0 7.614 4.262 17.809-4.262 22.068-6.716 3.355-13.427-4.517-19.627-8.001-84.706-48.393-169.156-97.434-253.867-145.699-12.134-6.967-16.657-15.356-16.397-29.163 0.644-49.169 0.256-98.338 0.256-147.503zM378.206 355.085c-0.904-11.102-1.937-20.779-11.105-26.33-9.168-5.547-17.562-0.256-24.276 4.774-21.177 15.876-33.186 37.427-31.378 64.009 1.42 20.39 15.624 26.33 32.669 15.232 21.177-13.939 30.604-34.846 34.090-57.685zM449.788 391.569c-0.516-6.839-2.197-16.132-10.978-20.002-8.393-3.742-16.526-1.549-24.274 4.514-18.465 14.583-28.925 33.297-31.507 56.269-1.162 10.065 0 20.518 10.847 26.065 10.072 5.035 17.82 0.26 25.567-5.807 17.302-13.679 30.734-39.1 30.345-61.039zM306.118 310.234c-0.904-10.321-0.387-19.486-9.814-24.388-9.814-5.035-18.853-1.161-26.342 4.518-20.015 14.967-29.829 36.002-30.991 60.523-0.387 7.484 0 16.777 8.78 21.163 9.297 4.646 18.336 2.581 26.471-3.354 20.273-14.839 29.699-35.49 31.895-58.33v-0.132zM508.066 619.994c-14.852-0.646-30.605 2.065-44.809 10.969-16.269 10.195-17.045 27.229-0.26 36.65 31.509 17.68 64.435 17.938 96.461 1.291 18.206-9.55 18.334-26.971 0.644-37.94-15.236-9.55-32.542-12.518-52.169-11.098l0.132 0.129zM707.998 390.827c-0.516-22.195-8.393-40.909-26.21-54.455-17.95-13.683-34.351-6.839-37.060 15.356-3.102 25.037 6.844 44.779 26.21 59.75 7.36 5.679 16.657 9.805 26.214 3.998 9.041-5.547 10.718-14.839 10.718-24.516l0.128-0.132zM775.71 331.106c0-22.455-9.813-40.393-27.763-53.167-16.013-11.358-32.542-3.614-36.028 15.612-3.742 21.039 13.948 55.881 33.186 65.041 18.594 8.777 30.605-2.065 30.733-27.486h-0.128zM572.318 416.422c2.193 17.421 9.681 34.842 25.822 47.748 7.232 5.807 15.497 8.777 24.538 5.419 10.202-3.742 14.076-13.163 14.332-22.583 0.777-23.616-9.037-43.23-27.635-57.685-7.744-6.063-17.818-8.128-26.598-2.581-9.557 5.939-10.074 16.777-10.458 29.683zM571.686 230.362c1.549 20.134 9.297 40.265 29.568 53.299 16.917 10.842 29.7 4.902 33.702-14.711 4.134-20.518-7.748-51.234-24.794-61.943-8.521-5.291-18.078-10.453-28.147-4.39-9.041 5.423-10.074 15.1-10.202 27.746h-0.128zM713.941 487.377c0.777 20.907 9.946 38.46 27.119 50.976 17.045 12.518 33.83 4.387 35.379-16.259 1.549-20.651-4.39-38.46-19.499-53.043-8.649-8.388-18.978-14.195-30.989-10.065-13.171 4.518-10.718 17.037-11.878 28.39h-0.132z" />
<glyph unicode="&#xe90a;" glyph-name="banca" d="M703.654 716.021c139.477-101.87 132.446-211.931 162.718-255.993 30.268-44.058 72.294-44.058 72.294-80.815 0-36.753-82.901-146.62-253.641-233.097s-345.805-90.402-385.762-75.285c-39.952 15.104 17.723 149.798 11.739 190.234-5.984 40.439-57.062 110.72-76.619 110.72-19.552 0-62.959-101.282-89.034-101.282s-60.016 83.166-60.016 175.488c0 92.32 29.594 173.224 60.016 173.224s64.826-107.714 89.034-107.714c24.208 0 76.619 84.877 76.619 137.183s-83.765 136.503-58.48 170.71c25.286 34.207 311.654-1.507 451.132-103.372zM725.333 502.857c-29.457 0-53.333-24.559-53.333-54.857s23.876-54.857 53.333-54.857c29.457 0 53.333 24.559 53.333 54.857s-23.876 54.857-53.333 54.857z" />
<glyph unicode="&#xe90b;" glyph-name="casino-1" d="M386.88 587.179l-74.573-74.573c-13.586-13.586-13.586-35.693 0.002-49.279 13.586-13.586 35.694-13.586 49.28 0l8.322 8.319c9.371 9.372 24.568 9.372 33.941 0l8.321-8.319c13.586-13.586 35.697-13.586 49.283 0s13.586 35.693 0 49.279l-74.575 74.573zM554.881 377.922c0 47.911 34.947 84.070 95.998 103.621v283.578c0 39.701-32.297 72-71.999 72h-384c-39.701 0-72-32.299-72-72v-608.002c0-39.698 32.299-71.999 72-71.999h360.132c-0.078 1.589-0.131 3.187-0.131 4.801v288.002zM250.88 685.12c0-13.254-10.745-24-24-24s-24 10.746-24 24v48c0 13.254 10.746 24 24 24s24-10.746 24-24v-48zM495.395 429.384c-22.827-22.823-55.759-29.503-84.517-20.074v-52.191h40.002c13.255 0 24.003-10.744 24.003-23.998s-10.748-23.998-24.003-23.998h-128c-13.254 0-24 10.744-24 23.998s10.745 23.998 24 23.998h40v52.175c-8.407-2.753-17.168-4.133-25.933-4.133-21.216 0-42.432 8.073-58.581 24.224-32.301 32.305-32.301 84.861 0 117.162l91.544 91.546c9.371 9.371 24.568 9.371 33.941 0l91.544-91.546c32.301-32.301 32.301-84.857 0-117.162zM772.481 305.918c-84.419 0-169.599 22.266-169.599 72.004s85.18 71.999 169.599 71.999c84.419 0 169.599-22.262 169.599-71.999s-85.18-72.004-169.599-72.004zM772.481 257.921c-73.622 0-131.94 13.836-169.599 38.543v-62.546c0-49.738 85.18-71.999 169.599-71.999s169.599 22.262 169.599 71.999v62.546c-37.659-24.707-95.977-38.543-169.599-38.543zM772.481 113.922c-73.622 0-131.94 13.836-169.599 38.539v-62.542c0-49.738 85.18-71.999 169.599-71.999s169.599 22.262 169.599 71.999v62.542c-37.659-24.703-95.977-38.539-169.599-38.539z" />
<glyph unicode="&#xe90c;" glyph-name="casino1" d="M511.194 874.667c5.244 0 17.694-6.762 34.927-18.397l18.739-13.187 21.393-16.017 23.505-18.423 25.084-20.411 26.125-21.98 26.624-23.125 26.594-23.853 26.014-24.16 24.905-24.047c28.198-27.825 53.030-54.562 70.66-77.208 56.422-51.405 102.903-149.659 102.903-218.169 0-146.556-107.618-265.796-239.927-265.796-59.149 0-107.516 34.185-142.123 70.298l5.466-23.91c10.487-23.053 23.373-45.222 38.665-66.53l11.921-15.821 41.553-52.595h-284.443l41.553 52.595c20.653 26.142 37.527 53.615 50.647 82.479l5.5 23.855c-34.611-36.139-83.021-70.37-142.198-70.37-132.323 0-239.946 119.241-239.946 265.796 0 68.681 46.7 167.054 104.113 219.38 15.38 19.857 35.828 42.499 59.004 66.109l23.999 23.863 25.298 24.1 26.080 23.933 26.339 23.362 26.082 22.385 25.303 21.002 24.006 19.215 22.189 17.023 19.853 14.425c21.598 15.156 37.363 24.181 43.593 24.181z" />
<glyph unicode="&#xe90d;" glyph-name="daga" d="M95 514.863c40.791 65.394 130.522 104.896 171.662 123.008 5.668 2.496 10.414 4.585 13.982 6.28 23.574 11.197 40.026 71.458 45.306 100.189 6.753 24.311 26.447 80.52 51.2 110.871 30.941 37.939 53.779 46.411 87.665 25.415 28.919-17.918 53.090 9.598 65.668 23.921 2.163 2.46 3.981 4.53 5.423 5.915 34.803 33.412 76.843-10.129 87.275-20.934 0.61-0.63 1.109-1.149 1.493-1.535 35.729-24.311 62.251-5.525 65.199 0s16.576 19.522 18.415 20.996c21.705 10.037 34.415-0.105 46.229-9.532 4.228-3.372 8.341-6.653 12.706-8.885 16.576-8.472 28.365-2.21 40.887 21.732s43.831 13.261 63.723-26.52c15.91-31.825-1.472-68.020-12.156-82.14-1.963-8.718-0.589-26.668 20.629-28.731 21.214-2.063 28.975-27.626 30.204-40.149 4.42-82.508-62.989-94.050-97.246-89.507-99.302 107.261-240.772 119.343-299.093 111.976 300.864-31.235 371.413-374.234 369.079-541.833-36.245 114.923-132.723 178.526-176.435 195.959 75.435-121.993 67.776-277.239 54.515-339.61-11.789 109.321-79.070 173.244-111.241 191.535 19.746-91.644-21.239-179.874-44.198-212.531-10.022 99.008-39.292 131.127-52.676 134.814-11.785-113.156-66.547-179.998-92.45-199.275 53.922 189.769 3.068 289.762-29.103 316.036 0.738-18.415-1.694-63.057-17.31-94.293-19.522-39.044-55.251-46.78-110.502-22.468-44.201 19.447-36.098 85.943-26.521 116.762 6.63 18.786 22.248 65.566 31.677 102.4 8.674 33.882 7.175 37.845 5.778 41.536-0.501 1.327-0.989 2.615-0.989 5.244-77.352 33.519-161.702 0-209.218-23.94-52.747-17.387-28.362 50.953-9.577 87.296zM443.076 541.014c26.65 0 48.256 21.604 48.256 48.253s-21.606 48.253-48.256 48.253c-26.647 0-48.251-21.603-48.251-48.253s21.603-48.253 48.251-48.253z" />
<glyph unicode="&#xe90e;" glyph-name="fire1" d="M824.943 346.146c-0.009 0.081-0.013 0.166-0.021 0.252-2.714 35.648-9.647 65.916-21.811 95.151-0.162 0.444-0.341 0.883-0.533 1.318-0.695 1.587-69.052 159.63-37.047 246.485 2.889 7.836 1.489 16.518-3.738 23.179-5.222 6.662-13.581 10.425-22.34 10.071-2.347-0.097-50.159-2.611-100.877-44.896-44.386 86.787-51.396 178.986-51.465 179.992-0.602 8.72-5.956 16.509-14.131 20.553-8.175 4.046-17.98 3.752-25.873-0.762-70.046-40.096-124.158-89.028-160.831-145.442-29.612-45.548-47.871-95.858-54.274-149.536-5.289-44.336-1.577-83.466 3.759-112.279l-94.449 36.612c-6.942 2.692-14.764 2.462-21.517-0.64-6.749-3.102-11.79-8.777-13.862-15.607-6.169-20.335-10.788-39.13-14.124-57.455-11.612-63.834-6.86-129.207 13.735-189.060 20.707-60.173 56.439-111.991 103.335-149.854 42.054-33.954 90.846-55.245 143.91-63.548-19.921 5.636-38.432 15.138-54.953 28.476-48.404 39.078-71.053 104.141-59.11 169.801 1.863 10.223 6.28 25.92 6.78 27.674 2.509 8.853 9.617 16.009 19.022 18.15 9.341 2.125 18.853-0.414 25.333-7.108 2.59-2.274 29.247-24.213 79.222-11.221 58.705 15.258 62.925 132.868 59.776 172.868-0.896 11.328 6.379 21.807 17.715 25.515 11.332 3.716 23.876-0.286 30.554-9.724 68.766-97.263 99.145-174.349 98.5-249.941-0.256-29.38-10.714-62.519-28.706-90.918-21.508-33.958-51.281-57.882-86.101-69.193-9.737-3.166-19.383-5.568-28.907-7.3 31.974 2.411 64.934 9.007 98.441 19.891 68.42 22.221 122.607 66.244 156.702 127.296 28.335 50.748 41.792 111.548 37.888 171.2zM622.81 195.58c0.286 33.655-5.483 79.757-44.736 150.921-0.474-3.238-0.994-6.502-1.57-9.788-8.713-49.818-32.004-112.555-93.461-128.525-38.208-9.929-70.154-5.926-93.7 2.543-4.945-44.352 11.281-88.081 42.739-113.476 29.525-23.846 68.122-28.979 111.607-14.852 53.461 17.365 78.818 77.798 79.121 113.178z" />
<glyph unicode="&#xe90f;" glyph-name="gamebai" d="M532.681 384.077c0.491 7.868-0.154 15.77-1.911 23.433-5.521 22.967-14.17 35.959-35.627 53.052-23.59 18.752-36.25 20.416-61.901 39.326-4.416 3.247-11.667 7.659-18.328 15.467-6.629 8.486-10.464 19.001-10.931 29.968-0.222-5.647-1.341-11.214-3.312-16.473-1.891-4.881-4.458-9.442-7.617-13.534-6.662-7.77-13.875-12.181-18.292-15.467-25.65-18.871-38.31-20.535-61.938-39.287-21.456-17.092-30.068-30.084-35.588-53.052-1.76-7.663-2.405-15.565-1.914-23.433 0.515-7.966 2.429-18.249 4.601-25.135 3.68-11.793 8.39-19.759 15.898-26.948 8.575-8.277 20.536-14.426 31.54-16.939 37.244-8.508 62.563 11.366 62.563 11.366l-37.317-53.282h102.752l-37.319 53.282c0 0 25.355-19.874 62.565-11.366 11.712 2.739 22.566 8.567 31.539 16.934 7.509 7.194 12.22 15.159 15.936 26.953 2.423 8.171 3.964 16.602 4.599 25.135zM703.078 688.586v-589.723c-0.051-20.54-7.834-40.226-21.653-54.75-13.82-14.528-32.55-22.72-52.1-22.78h-427.535c-19.555 0.051-38.296 8.235-52.123 22.763s-21.618 34.219-21.666 54.767v589.684c0.049 20.547 7.839 40.237 21.666 54.765s32.568 22.713 52.123 22.764h427.535c19.546-0.051 38.281-8.23 52.109-22.75 13.824-14.52 21.585-34.2 21.645-54.74zM935.812 663.336l-152.286-570.468c-9.643-36.156-43.721-58.927-78.613-54.831 11.84 8.439 21.538 19.793 28.245 33.071 6.711 13.274 10.231 28.075 10.253 43.106v601.129c-0.068 24.448-9.34 47.873-25.796 65.16-16.452 17.287-38.746 27.030-62.016 27.101h-276.752l1.656 6.768c10.121 42.534 50.934 68.673 90.644 57.847l413.291-112.639c39.526-10.751 62.639-54.097 51.375-96.244z" />
<glyph unicode="&#xe910;" glyph-name="gamenhanh" d="M429.926 64c-2.999 0-6.037 0.597-8.937 1.843-10.151 4.361-15.642 15.398-12.976 26.086l76.386 306.266h-205.81c-7.45 0-14.42 3.657-18.633 9.779s-5.123 13.918-2.435 20.838l150.983 388.804c3.366 8.669 11.735 14.383 21.064 14.383h207.753c7.637 0 14.754-3.84 18.923-10.209s4.83-14.405 1.749-21.363l-89.399-202.139h176.819c8.26 0 15.863-4.493 19.823-11.715s3.648-16.020-0.819-22.944l-315.473-489.288c-4.267-6.618-11.524-10.342-19.017-10.342z" />
<glyph unicode="&#xe911;" glyph-name="home" d="M413.728 845.078c33.159 18.575 63.879 29.589 98.234 29.589 34.411 0 65.131-11.014 98.351-29.648 32.149-18.039 68.941-44.651 115.26-78.169l59.891-43.282c37.15-26.85 66.859-48.342 89.301-68.227 23.1-20.48 40.367-40.96 51.379-66.679 10.953-25.778 13.632-52.212 12.143-82.635-1.425-29.41-6.844-64.892-13.692-109.129l-12.501-81.442c-9.647-62.869-17.327-112.879-28.638-151.872-11.669-40.367-28.16-72.397-57.57-96.866-29.291-24.35-64.179-35.183-106.803-40.363-41.498-5.060-93.828-5.060-159.91-5.060h-94.366c-66.082 0-118.413 0-159.849 5.060-42.627 5.18-77.574 16.073-106.865 40.422-29.41 24.41-45.842 56.439-57.57 96.806-11.312 38.993-18.992 89.003-28.577 151.872l-12.562 81.442c-6.787 44.237-12.264 79.718-13.693 109.129-1.429 30.423 1.191 56.856 12.205 82.635 10.954 25.719 28.279 46.199 51.378 66.679 22.385 19.885 52.093 41.377 89.302 68.227l59.833 43.282c46.318 33.518 83.17 60.13 115.319 78.169v0.059zM417.3 280.866c-8.313 6.464-18.855 9.365-29.305 8.060s-19.953-6.711-26.42-15.027c-6.466-8.311-9.364-18.854-8.058-29.303s6.711-19.955 15.024-26.419c41.164-31.505 91.645-48.41 143.481-48.043 54.293 0 104.602 17.86 143.475 48.043 4.117 3.204 7.565 7.189 10.138 11.729 2.577 4.535 4.237 9.536 4.881 14.711 0.644 5.18 0.26 10.432-1.126 15.462-1.387 5.026-3.75 9.737-6.955 13.85-3.204 4.117-7.189 7.565-11.729 10.138-4.535 2.577-9.536 4.237-14.711 4.881s-10.432 0.26-15.462-1.126c-5.026-1.387-9.737-3.75-13.85-6.955-24.649-19.17-57.749-31.313-94.66-31.313-34.155-0.35-67.456 10.667-94.662 31.313h-0.059z" />
<glyph unicode="&#xe912;" glyph-name="jackpot1" d="M40.96 255.017h901.12v385.778h-901.12v-385.778zM688.763 542.941h192.967l-74.097-227.541-50.369 15.229 52.568 161.44h-68.268v-39.387h-52.802v90.259zM399.806 542.941h192.967l-74.080-227.541-50.389 15.229 52.572 161.44h-68.268v-39.387h-52.802v90.259zM106.907 542.941h192.966l-74.096-227.541-50.371 15.229 52.571 161.44h-68.27v-39.387h-52.8v90.259zM40.96 755.2h901.12v-63.536h-901.12v63.536zM40.96 140.8h901.12v63.537h-901.12v-63.537z" />
<glyph unicode="&#xe913;" glyph-name="slots" d="M448.823 816.279c-19.605-9.56-28.001-29.004-20.143-46.655 4.659-10.468 19.255-23.22 39.42-34.448 10.547-5.871 20.143-12.122 21.316-13.894 1.182-1.77 4.326-12.694 6.993-24.274 16.747-72.691-14.814-159.972-70.053-210.577-19.728-18.074-27.84-23.155-34.464-21.598-2.93 0.691-12.609 8.58-22.625 18.445-44.417 43.738-106.51 51.7-162.93 25.929-44.709-20.425-84.546-59.942-106.851-105.997-52.18-107.721 47.751-259.354 171.817-273.318 42.214-4.749 74.182 0.755 114.699 19.742 10.977 5.141 34.512 21.316 42.58 28.975-10.094 40.879-12.562 82.569-7.873 121.259 4.844 39.97 17.661 78.451 38.96 109.606-1.51 3.413-4.497 6.323-7.475 9.225-3.119 3.042-6.229 6.067-7.607 9.643-1.847 4.783 2.726 11.699 15.215 23.010 14.601 13.218 37.79 42.394 44.996 56.606 29.286 57.76 31.27 62.374 35.985 83.709 2.603 11.778 5.79 22.609 7.078 24.069 4.365 4.939 11.78 2.093 19.554-7.505 16.887-20.857 39.778-65.722 45.129-92.547 2.987-14.972 10.304-28.467 17.749-32.725 10.466-5.99 31.812-4.548 36.817 2.483 0.777 1.101 1.429 4.459 1.446 7.467 0.047 8.269-2.24 29.022-7.629 42.114-2.611 6.349-8.247 20.126-12.523 30.618-13.508 33.159-47.881 86.972-79.599 124.64-13.594 16.141-8.021 21.893 20.817 21.893 2.33 0 4.749 0.014 7.223 0.027 22.135 0.123 48.457 0.269 51.558-8.995 0.742-2.2 6.788-14.645 13.449-27.656 25.924-50.652 59.004-82.447 111.479-107.136 41.075-19.326 96.934-31.164 139.115-29.483 14.246 0.57 17.515 1.293 21.124 4.683 7.066 6.636 6.827 20.215-1.015 57.297-5.734 27.095-8.397 35.504-16.546 52.297-11.921 24.576-18.044 32.529-41.045 53.334-38.524 34.844-84.011 42.874-134.519 42.049-20.847-0.34-41.050-2.65-61.269-4.962-20.591-2.355-69.355-3.192-90.701-3.473-57.237-0.756-62.118-0.14-66.782 8.435-1.412 2.603-3.558 9.11-4.766 14.461-3.072 13.628-11.307 32.399-18.197 41.492-6.831 9.012-21.845 16.791-32.41 16.791-4.036 0-11.635-2.196-17.498-5.054zM602.313 83.123c-42.167 11.217-58.411 19.017-81.621 39.181-53.022 46.080-62.583 105.835-54.498 172.544 11.238 92.745 72.218 153.007 171.767 131.699 22.421-4.8 22.699-4.813 34.231-1.681 6.396 1.737 17.28 4.681 24.188 6.545 66.53 17.967 135.573-21.107 161.007-80.303 19.46-45.278 20.254-88.58 9.903-136.073-8.7-39.932-38.123-81.698-74.27-105.438-54.336-35.669-128.060-43.136-190.707-26.475z" />
<glyph unicode="&#xe914;" glyph-name="event" d="M393.229 843.854c-69.66 0-163.861-26.401-163.861-93.033h-12.682c-73.309 0-131.354-58.046-131.354-131.354 0-65.422 28.221-120.323 67.693-164.18 0.38-0.418 0.771-0.832 1.172-1.233 20.97-20.971 47.248-39.42 77.495-51.213 45.844-97.664 141.204-167.356 253.859-176.858v-101.184h-86.392c-3.101 0-6.174 0.009-9.213 0.017-57.153 0.158-102.347 0.286-102.347-58.044v-14.639h460.638v14.639c0 58.33-45.193 58.202-102.349 58.044-3.034-0.009-6.11-0.017-9.212-0.017h-86.349v101.184c107.435 13.239 197.73 82.65 241.95 176.845 30.259 11.793 56.546 30.251 77.525 51.226 0.401 0.401 0.789 0.815 1.169 1.233 39.471 43.857 67.695 98.758 67.695 164.18 0 73.308-58.048 131.354-131.358 131.354h-12.698c0 75.26-94.204 93.033-163.861 93.033h-237.521zM150.108 619.468c0 31.655 20.659 57.271 49.646 64.52-1.072-8.226-1.601-16.557-1.601-24.934v-118.758c0-14.058 0.94-27.844 2.746-41.327l-0.303 0.299c-31.439 35.155-50.488 75.055-50.488 120.199zM873.89 619.468c0-45.145-19.046-85.044-50.492-120.199l-0.299-0.299c1.805 13.483 2.743 27.268 2.743 41.327v118.758c0 8.376-0.529 16.707-1.6 24.934 28.988-7.248 49.647-32.865 49.647-64.52z" />
<glyph unicode="&#xe915;" glyph-name="xoso" d="M670.144 747.081c-17.638-17.442 6.613-69.97 54.025-117.428s99.669-71.514 117.316-54.078c17.638 17.437-6.618 69.97-54.029 117.428-47.411 47.453-99.669 71.514-117.312 54.078zM176.768 432.759c0-143.066 115.98-259.046 259.046-259.046 143.070 0 259.051 115.981 259.051 259.046 0 143.069-115.981 259.049-259.051 259.049-143.066 0-259.046-115.98-259.046-259.049zM85.333 448c0 235.641 191.025 426.667 426.667 426.667 235.639 0 426.667-191.025 426.667-426.667 0-235.639-191.027-426.667-426.667-426.667-235.641 0-426.667 191.027-426.667 426.667zM455.838 265.139c30.519-0.119 55.488 22.242 56.090 50.206 1.314 20.284-12.271 36.954-40.977 50.206l-31.983 16.068c-1.527 0.098-2.948 0.747-3.942 1.805-2.756 2.057-6.11 3.311-9.642 3.618-21.971-11.238-35.498-32.572-35.271-55.629 2.046-41.771 23.953-63.863 65.726-66.274zM432.256 539.419c-22.775 0.472-41.575-20.277-41.988-46.338-2.269-28.288 19.681-53.474 65.843-75.558 16.794 13.777 26.342 36.356 25.357 59.972-1.135 40.269-17.408 60.623-49.007 61.919l-0.205 0.005zM559.381 491.533c-1.293-33.715-21.713-56.708-61.265-68.971 51.017-19.925 75.955-50.854 74.807-92.796-3.729-61.167-47.219-92.864-130.483-95.095-71.798 2.3-109.418 27.797-113.288 76.284 1.862 36.087 24.29 62.212 67.284 78.379-36.57 11.831-60.266 46.221-57.61 83.601 6.307 58.377 43.995 90.702 113.069 96.975 67.93-5.018 103.616-31.14 107.486-78.377z" />
<glyph unicode="&#xe916;" glyph-name="dice" d="M297.647 797.747l-212.313-327.663 180.258-350.784 212.314 327.676-180.259 350.771zM191.2 448.461c-16.938 0-30.653 13.679-30.653 30.566 0 16.875 13.715 30.571 30.653 30.571 16.922 0 30.653-13.696 30.653-30.571 0-16.887-13.732-30.566-30.653-30.566zM265.47 302.528c-16.938 0-30.653 13.692-30.653 30.566 0 16.892 13.715 30.566 30.653 30.566 16.92 0 30.653-13.675 30.653-30.566 0-16.875-13.733-30.566-30.653-30.566zM275.558 577.194c-16.92 0-30.653 13.676-30.653 30.567 0 16.872 13.734 30.567 30.653 30.567 16.938 0 30.653-13.695 30.653-30.567 0-16.891-13.715-30.567-30.653-30.567zM357.167 424.883c-16.938 0-30.653 13.675-30.653 30.566s13.715 30.566 30.653 30.566c16.92 0 30.653-13.675 30.653-30.566s-13.733-30.566-30.653-30.566zM522.044 418.526l-216.462-334.037 409.981-20.489 216.448 334.054-409.967 20.471zM499.78 138.304c-16.917 0-30.652 13.675-30.652 30.566 0 16.875 13.734 30.566 30.652 30.566 16.939 0 30.656-13.692 30.656-30.566 0-16.892-13.717-30.566-30.656-30.566zM745.395 271.962c-16.939 0-30.656 13.692-30.656 30.566 0 16.892 13.717 30.566 30.656 30.566 16.917 0 30.652-13.675 30.652-30.566 0-16.875-13.734-30.566-30.652-30.566zM753.118 811.302l-414.011 20.698 185.565-361.143 413.995-20.685-185.549 361.13zM654.942 608.337c-16.939 0-30.656 13.695-30.656 30.567 0 16.891 13.717 30.567 30.656 30.567 16.917 0 30.652-13.676 30.652-30.567 0-16.874-13.73-30.567-30.652-30.567z" />
<glyph unicode="&#xe917;" glyph-name="poker" d="M179.064 676.813c25.592-25.591 65.327-28.384 94.031-8.418l-23.098-23.1c-30.739-30.74-31.086-80.337-1.083-111.529l177.318 177.322c-31.191 30.002-80.787 29.654-111.526-1.084l-23.098-23.098c19.966 28.704 17.173 68.439-8.418 94.031l-29.502 29.5c-28.753 28.752-75.371 28.752-104.122 0s-28.752-75.37 0-104.122l29.5-29.501zM758.558 486.656l-207.91 207.907c-21.346 21.347-55.957 21.347-77.303 0l-207.905-207.911c-21.347-21.346-21.347-55.957 0-77.303l207.905-207.906c21.346-21.346 55.957-21.346 77.303 0l207.91 207.91c21.346 21.346 21.346 55.957 0 77.303zM520.397 623.416l31.817-31.82-45.333-45.336-31.821 31.82 45.338 45.336zM336.584 439.603l45.336 45.338 31.82-31.821-45.336-45.333-31.82 31.817zM404.184 372.002l45.335 45.338 31.821-31.821-45.338-45.333-31.818 31.817zM503.603 272.585l-31.817 31.821 45.333 45.333 31.821-31.817-45.338-45.338zM542.66 510.481l45.338 45.335 31.817-31.818-45.333-45.338-31.821 31.821zM642.078 411.059l-31.817 31.821 45.333 45.333 31.821-31.817-45.338-45.338zM774.003 645.295l-23.1 23.098c28.706-19.965 68.437-17.173 94.033 8.418l29.5 29.501c28.753 28.753 28.753 75.37 0 104.122s-75.371 28.752-104.124 0l-29.5-29.501c-25.591-25.593-28.386-65.327-8.418-94.031l-23.1 23.1c-30.741 30.739-80.337 31.086-111.531 1.081l177.323-177.319c30.003 31.192 29.658 80.79-1.084 111.529zM844.932 219.187c-25.591 25.591-65.323 28.386-94.029 8.418l23.1 23.1c30.741 30.741 31.087 80.341 1.075 111.531l-177.314-177.318c31.189-30.007 80.789-29.662 111.531 1.079l23.1 23.1c-19.968-28.706-17.173-68.437 8.418-94.033l29.5-29.5c28.753-28.753 75.371-28.753 104.124 0 28.749 28.753 28.749 75.371 0 104.124l-29.504 29.5zM249.996 250.705l23.098-23.1c-28.704 19.968-68.439 17.173-94.031-8.418l-29.5-29.5c-28.752-28.753-28.752-75.371 0-104.124 28.752-28.749 75.37-28.749 104.122 0l29.501 29.504c25.591 25.591 28.384 65.323 8.418 94.029l23.098-23.1c30.74-30.737 80.337-31.087 111.53-1.084l-177.318 177.323c-30.005-31.194-29.658-80.789 1.081-111.531z" />
<glyph unicode="&#xe918;" glyph-name="about-us" d="M815.484 420.774h-65.993c6.729-17.37 10.402-36.113 10.402-55.65v-235.221c0-8.145-1.502-15.962-4.237-23.232h109.099c40.755 0 73.911 31.27 73.911 69.705v128.226c0 64.060-55.258 116.173-123.183 116.173zM264.109 365.124c0 19.537 3.675 38.281 10.402 55.65h-65.994c-67.923 0-123.183-52.117-123.183-116.173v-128.23c0-38.434 33.155-69.705 73.91-69.705h109.103c-2.735 7.275-4.238 15.091-4.238 23.236v235.221zM587.435 481.297h-150.869c-67.923 0-123.183-52.113-123.183-116.173v-235.221c0-12.83 11.030-23.236 24.637-23.236h347.963c13.606 0 24.636 10.402 24.636 23.236v235.221c0 64.060-55.258 116.173-123.183 116.173zM512 789.333c-81.685 0-148.143-62.674-148.143-139.714 0-52.255 30.582-97.893 75.746-121.854 21.423-11.362 46.118-17.856 72.397-17.856 26.283 0 50.978 6.494 72.401 17.856 45.163 23.962 75.742 69.601 75.742 121.854 0 77.038-66.453 139.714-148.143 139.714zM251.863 659.11c-61.091 0-110.792-46.871-110.792-104.486 0-57.613 49.7-104.486 110.792-104.486 15.497 0 30.254 3.029 43.659 8.469 23.177 9.408 42.287 26.069 54.112 46.933 8.3 14.643 13.022 31.352 13.022 49.084 0 57.613-49.7 104.486-110.792 104.486zM772.139 659.11c-61.094 0-110.793-46.871-110.793-104.486 0-17.733 4.723-34.441 13.022-49.084 11.823-20.868 30.933-37.525 54.11-46.933 13.406-5.44 28.164-8.469 43.661-8.469 61.090 0 110.793 46.874 110.793 104.486 0 57.615-49.702 104.486-110.793 104.486z" />
<glyph unicode="&#xe919;" glyph-name="all" d="M85.852 424.905c2.025-31.151 5.432-55.782 14.019-87.561 2.329-8.619 9.881-14.4 18.813-14.4h119.715c11.621 0 20.582 9.937 19.382 21.491-7.068 68.083-7.826 138.893-2.196 207.568 0.934 11.412-7.967 21.072-19.421 21.072h-117.479c-8.93 0-16.483-5.783-18.813-14.403-5.793-21.452-9.975-43.562-12.301-66.184-2.092-20.301-2.326-33.485-2.216-53.53l0.497-14.054zM268.396 651.476c7.876 44.132 18.445 86.377 31.471 125.824 5.823 17.636-14.282 32.69-29.571 22.142-50.999-35.18-94.021-81.163-125.689-134.614-7.717-13.024 1.626-29.412 16.767-29.412h87.838c9.527 0 17.51 6.684 19.183 16.061zM690.897 658.685c-14.443 72.875-36.783 139.279-65.911 194.224-2.705 5.104-7.010 8.451-12.629 9.812-65.788 15.934-134.946 15.921-200.69 0-5.617-1.361-9.923-4.706-12.631-9.812-29.124-54.947-51.464-121.35-65.908-194.224-2.4-12.108 6.769-23.27 19.115-23.27h319.541c12.348 0 21.517 11.162 19.115 23.27zM774.81 635.415h87.842c15.138 0 24.482 16.387 16.768 29.411-31.671 53.46-74.697 99.456-125.7 134.628-15.287 10.545-35.392-4.509-29.568-22.144 13.026-39.45 23.595-81.699 31.475-125.836 1.673-9.375 9.66-16.059 19.183-16.059zM785.626 322.944h119.718c8.93 0 16.482 5.777 18.812 14.4 5.794 21.44 9.975 43.554 12.297 66.185 2.27 22.178 2.214 32.333 2.214 54.383 0 8.836-1.429 26.965-2.214 34.577-2.325 22.622-6.507 44.732-12.301 66.184-2.33 8.62-9.882 14.403-18.812 14.403h-117.478c-11.452 0-20.356-9.66-19.422-21.072 5.632-68.68 4.873-139.481-2.193-207.568-1.203-11.558 7.761-21.491 19.379-21.491zM751.1 245.039c-9.323-45.402-22.037-90.825-38.217-133.188-6.69-17.519 12.924-33.472 28.719-23.351 56.329 36.087 103.637 85.047 137.805 142.69 7.718 13.026-1.626 29.414-16.768 29.414h-92.45c-9.353 0-17.207-6.409-19.089-15.565zM311.136 111.863c-16.179 42.364-28.89 87.774-38.211 133.175-1.88 9.156-9.738 15.565-19.087 15.565h-92.452c-15.142 0-24.483-16.393-16.765-29.414 34.162-57.638 81.473-106.586 137.797-142.682 15.793-10.116 35.41 5.833 28.718 23.356zM666.342 260.604h-308.66c-12.577 0-21.8-11.571-18.996-23.825 17.527-76.604 43.916-144.96 77.519-198.537 2.958-4.715 7.259-7.676 12.722-8.759 54.848-10.863 111.27-10.871 166.17 0 5.461 1.084 9.762 4.045 12.719 8.759 33.604 53.577 59.994 121.92 77.521 198.537 2.807 12.254-6.417 23.825-18.995 23.825zM314.22 460.501c0-40.879 2.407-81.203 6.919-120.311 1.14-9.877 9.41-17.246 19.357-17.246h343.032c9.95 0 18.219 7.369 19.358 17.246 8.196 71.014 9.139 143.599 2.675 215.155-0.909 10.073-9.289 17.729-19.405 17.729h-348.288c-10.118 0-18.497-7.656-19.408-17.729-2.804-31.065-4.241-62.788-4.241-94.843z" />
<glyph unicode="&#xe91a;" glyph-name="arrow-down" d="M822.639 361.361l-288-288c-2.97-2.978-6.502-5.338-10.385-6.946-3.887-1.613-8.047-2.441-12.254-2.441s-8.371 0.828-12.254 2.441c-3.887 1.609-7.415 3.968-10.385 6.946l-288.002 288c-6.004 6.003-9.378 14.148-9.378 22.639s3.373 16.636 9.378 22.639c6.005 6.007 14.149 9.378 22.64 9.378s16.635-3.371 22.64-9.378l233.361-233.399v626.761c0 8.487 3.371 16.626 9.374 22.627 5.999 6.001 14.14 9.373 22.626 9.373s16.627-3.372 22.626-9.373c6.003-6.001 9.374-14.141 9.374-22.627v-626.761l233.361 233.399c6.003 6.007 14.148 9.378 22.639 9.378s16.636-3.371 22.639-9.378c6.003-6.003 9.378-14.148 9.378-22.639s-3.375-16.636-9.378-22.639z" />
<glyph unicode="&#xe91b;" glyph-name="arrow-left" d="M896 448.004c0-8.486-3.371-16.627-9.374-22.63-5.999-5.999-14.14-9.37-22.626-9.37h-626.76l233.399-233.361c2.974-2.974 5.333-6.502 6.942-10.389 1.609-3.883 2.436-8.047 2.436-12.25 0-4.207-0.828-8.371-2.436-12.254s-3.968-7.415-6.942-10.389c-2.97-2.97-6.502-5.329-10.385-6.938-3.887-1.609-8.047-2.436-12.254-2.436-4.203 0-8.367 0.828-12.254 2.436-3.883 1.609-7.411 3.968-10.385 6.938l-288 288c-2.976 2.974-5.336 6.502-6.946 10.389-1.61 3.883-2.439 8.047-2.439 12.254 0 4.203 0.829 8.367 2.439 12.254 1.61 3.883 3.971 7.411 6.946 10.385l288 288c6.004 6.004 14.149 9.378 22.639 9.378s16.636-3.373 22.639-9.378c6.007-6.004 9.378-14.149 9.378-22.64s-3.371-16.635-9.378-22.64l-233.399-233.359h626.76c8.486 0 16.627-3.371 22.626-9.374 6.003-6.003 9.374-14.14 9.374-22.626z" />
<glyph unicode="&#xe91c;" glyph-name="arrow-right" d="M886.639 425.361l-288-288c-6.003-6.003-14.148-9.374-22.639-9.374s-16.636 3.371-22.639 9.374c-6.007 6.007-9.378 14.148-9.378 22.643 0 8.491 3.371 16.636 9.378 22.639l233.399 233.361h-626.761c-8.487 0-16.626 3.371-22.627 9.37-6.001 6.003-9.373 14.144-9.373 22.63s3.372 16.623 9.373 22.626c6.001 6.003 14.141 9.374 22.627 9.374h626.761l-233.399 233.359c-6.007 6.004-9.378 14.148-9.378 22.64s3.371 16.636 9.378 22.64c6.003 6.004 14.148 9.378 22.639 9.378s16.636-3.373 22.639-9.378l288-288c2.978-2.974 5.338-6.502 6.946-10.385 1.613-3.887 2.441-8.051 2.441-12.254 0-4.207-0.828-8.371-2.441-12.254-1.609-3.887-3.968-7.415-6.946-10.389z" />
<glyph unicode="&#xe91d;" glyph-name="arrow-up-right-bold" d="M512 864c-82.278 0-162.706-24.398-231.117-70.109s-121.731-110.681-153.216-186.695c-31.486-76.013-39.724-159.657-23.673-240.352s55.671-154.82 113.85-213.001c58.179-58.18 132.303-97.801 213-113.852 80.695-16.051 164.339-7.812 240.354 23.676 76.011 31.484 140.983 84.804 186.692 153.216 45.713 68.412 70.11 148.838 70.11 231.117-0.115 110.294-43.981 216.038-121.971 294.028s-183.735 121.856-294.029 121.972zM672 384c0-8.486-3.371-16.627-9.374-22.626-5.999-6.003-14.14-9.374-22.626-9.374s-16.627 3.371-22.626 9.374c-6.003 5.999-9.374 14.14-9.374 22.626v114.761l-201.36-201.399c-2.973-2.974-6.503-5.333-10.387-6.942s-8.048-2.436-12.253-2.436c-4.204 0-8.368 0.828-12.253 2.436s-7.414 3.968-10.387 6.942c-2.973 2.974-5.332 6.502-6.941 10.385-1.609 3.887-2.437 8.051-2.437 12.254s0.828 8.367 2.437 12.254c1.609 3.883 3.968 7.411 6.941 10.385l201.4 201.361h-114.761c-8.486 0-16.627 3.372-22.627 9.373s-9.373 14.141-9.373 22.627c0 8.487 3.372 16.626 9.373 22.627s14.141 9.373 22.627 9.373h192c8.486 0 16.627-3.372 22.626-9.373 6.003-6.001 9.374-14.141 9.374-22.627v-192z" />
<glyph unicode="&#xe91e;" glyph-name="arrow-up-right" d="M800 704v-416c0-8.486-3.371-16.627-9.374-22.626-5.999-6.003-14.14-9.374-22.626-9.374s-16.627 3.371-22.626 9.374c-6.003 5.999-9.374 14.14-9.374 22.626v338.76l-457.36-457.399c-6.005-6.007-14.149-9.378-22.64-9.378s-16.635 3.371-22.64 9.378c-6.004 6.003-9.378 14.148-9.378 22.639s3.373 16.636 9.378 22.639l457.401 457.361h-338.761c-8.487 0-16.626 3.372-22.627 9.373s-9.373 14.141-9.373 22.627c0 8.487 3.372 16.626 9.373 22.627s14.141 9.373 22.627 9.373h416c8.486 0 16.627-3.372 22.626-9.373 6.003-6.001 9.374-14.141 9.374-22.627z" />
<glyph unicode="&#xe91f;" glyph-name="arrow-up" d="M822.639 489.357c-2.97-2.978-6.502-5.338-10.385-6.946-3.887-1.613-8.047-2.441-12.254-2.441s-8.371 0.828-12.254 2.441c-3.887 1.609-7.415 3.968-10.385 6.946l-233.361 233.399v-626.76c0-8.486-3.371-16.627-9.374-22.626-5.999-6.003-14.14-9.374-22.626-9.374s-16.627 3.371-22.626 9.374c-6.003 5.999-9.374 14.14-9.374 22.626v626.76l-233.361-233.399c-6.004-6.007-14.148-9.378-22.64-9.378s-16.635 3.371-22.64 9.378c-6.004 6.003-9.378 14.148-9.378 22.639s3.373 16.636 9.378 22.64l288.002 288c2.97 2.976 6.498 5.335 10.385 6.946 3.883 1.61 8.047 2.439 12.254 2.439s8.367-0.829 12.254-2.439c3.883-1.611 7.415-3.971 10.385-6.946l288-288c2.974-2.97 5.338-6.499 6.946-10.386 1.613-3.883 2.441-8.047 2.441-12.254s-0.828-8.371-2.441-12.254c-1.609-3.887-3.972-7.415-6.946-10.385z" />
<glyph unicode="&#xe920;" glyph-name="arrows-clockwise" d="M896 767.994v-192c0-8.487-3.371-16.626-9.374-22.627-5.999-6.001-14.14-9.373-22.626-9.373h-192c-6.332-0.005-12.523 1.869-17.792 5.385-5.265 3.516-9.374 8.515-11.797 14.366s-3.055 12.288-1.818 18.499c1.233 6.211 4.288 11.915 8.768 16.39l73.237 73.36c-58.914 56.451-137.284 88.087-218.88 88.36h-1.796c-83.612 0.164-163.925-32.599-223.562-91.2-6.111-5.705-14.212-8.791-22.57-8.6s-16.309 3.647-22.152 9.626c-5.843 5.979-9.114 14.007-9.114 22.368s3.273 16.388 9.117 22.367c71.335 69.697 166.988 108.906 266.716 109.332 99.733 0.425 195.716-37.967 267.644-107.052l73.442 73.44c4.476 4.453 10.176 7.481 16.371 8.701 6.199 1.221 12.617 0.581 18.453-1.84 5.833-2.421 10.82-6.514 14.332-11.764s5.389-11.422 5.402-17.738zM745.638 226.833c-59.273-57.89-138.692-90.539-221.547-91.068s-162.682 31.1-222.692 88.23l73.24 73.237c4.522 4.471 7.61 10.185 8.87 16.418 1.261 6.229 0.637 12.693-1.792 18.569s-6.553 10.897-11.846 14.417c-5.293 3.52-11.515 5.389-17.873 5.359h-192c-8.487 0-16.626-3.371-22.627-9.374-6.001-5.999-9.373-14.14-9.373-22.626v-192c-0.005-6.336 1.869-12.527 5.385-17.792 3.516-5.269 8.515-9.374 14.366-11.797s12.288-3.059 18.499-1.822c6.211 1.237 11.915 4.288 16.39 8.768l73.36 73.442c70.888-68.416 165.484-106.769 264-107.042h2.121c100.322-0.256 196.71 39.019 268.279 109.321 5.845 5.982 9.118 14.007 9.118 22.37 0 8.358-3.273 16.388-9.114 22.366-5.845 5.978-13.794 9.434-22.153 9.626s-16.461-2.897-22.571-8.602h-0.043z" />
<glyph unicode="&#xe921;" glyph-name="bank" d="M938.667 135.091c0-7.543-2.995-14.775-8.333-20.113-5.333-5.333-12.57-8.329-20.113-8.329h-796.444c-7.544 0-14.779 2.995-20.113 8.329-5.335 5.338-8.332 12.57-8.332 20.113 0 7.548 2.997 14.78 8.332 20.113 5.334 5.338 12.569 8.333 20.113 8.333h796.444c7.543 0 14.78-2.995 20.113-8.333 5.338-5.333 8.333-12.565 8.333-20.113zM114.844 525.564c-1.692 5.965-1.388 12.32 0.865 18.097s6.332 10.659 11.615 13.904l369.777 227.556c4.48 2.755 9.638 4.213 14.899 4.213s10.415-1.458 14.899-4.213l369.775-227.556c5.286-3.241 9.37-8.119 11.627-13.894s2.564-12.129 0.879-18.094c-1.69-5.965-5.278-11.217-10.223-14.955-4.949-3.738-10.978-5.756-17.178-5.751h-85.333v-227.554h56.887c7.543 0 14.78-2.999 20.113-8.333s8.333-12.57 8.333-20.113c0-7.543-2.999-14.78-8.333-20.113s-12.57-8.333-20.113-8.333h-682.667c-7.544 0-14.779 2.999-20.113 8.333s-8.331 12.57-8.331 20.113c0 7.543 2.997 14.78 8.331 20.113s12.569 8.333 20.113 8.333h56.889v227.554h-85.333c-6.194 0-12.22 2.018-17.161 5.751-4.941 3.738-8.529 8.981-10.217 14.942zM568.887 305.758c0-7.543 2.999-14.775 8.333-20.113 5.333-5.333 12.57-8.329 20.113-8.329s14.78 2.995 20.113 8.329c5.333 5.338 8.333 12.57 8.333 20.113v170.667c0 7.548-2.999 14.78-8.333 20.113-5.333 5.338-12.57 8.333-20.113 8.333s-14.78-2.995-20.113-8.333c-5.333-5.333-8.333-12.565-8.333-20.113v-170.667zM398.222 305.758c0-7.543 2.997-14.775 8.331-20.113 5.335-5.333 12.57-8.329 20.113-8.329s14.78 2.995 20.113 8.329c5.333 5.338 8.333 12.57 8.333 20.113v170.667c0 7.548-2.999 14.78-8.333 20.113-5.333 5.338-12.57 8.333-20.113 8.333s-14.779-2.995-20.113-8.333c-5.334-5.333-8.331-12.565-8.331-20.113v-170.667z" />
<glyph unicode="&#xe922;" glyph-name="bao-mat" d="M834.231 764.094c-52.8 5.75-104.764 17.771-154.846 35.82-45.961 16.62-90.048 38.236-131.503 64.479-10.816 6.72-23.228 10.274-35.883 10.274s-25.067-3.554-35.883-10.274l-0.043-0.040c-41.446-26.221-85.517-47.824-131.459-64.439-50.070-18.045-102.022-30.066-154.807-35.821-16.956-1.777-32.664-9.931-44.083-22.883s-17.734-29.779-17.725-47.224v-209.417c0.028-77.265 20.231-153.122 58.518-219.716 38.288-66.59 93.268-121.502 159.251-159.044l132.729-75.499c10.223-5.888 21.756-8.977 33.481-8.977 11.729 0 23.262 3.089 33.485 8.977l132.766 75.499c65.984 37.542 120.964 92.454 159.253 159.044 38.285 66.594 58.487 142.451 58.517 219.716v209.417c0.013 17.439-6.298 34.262-17.711 47.213-11.409 12.951-27.11 21.109-44.058 22.895zM668.732 522.159l-147.695-161.233c-7.010-7.671-16.678-12.237-26.931-12.715-10.257-0.478-20.288 3.166-27.951 10.155l-88.616 80.619c-7.803 7.1-12.532 17.079-13.145 27.746s2.939 21.146 9.876 29.133c6.936 7.987 16.689 12.826 27.111 13.453 10.423 0.631 20.662-3.008 28.465-10.103l59.964-54.519 121.459 132.576c3.686 4.019 8.137 7.223 13.077 9.417s10.27 3.33 15.654 3.339c7.68-0.004 15.189-2.305 21.606-6.619s11.46-10.455 14.515-17.665c3.051-7.211 3.977-15.177 2.667-22.92-1.314-7.742-4.809-14.924-10.057-20.663z" />
<glyph unicode="&#xe923;" glyph-name="calendarX" d="M832 800h-96v32c0 8.487-3.371 16.626-9.374 22.627-5.999 6.001-14.14 9.373-22.626 9.373s-16.627-3.372-22.626-9.373c-6.003-6.001-9.374-14.141-9.374-22.627v-32h-320v32c0 8.487-3.372 16.626-9.373 22.627s-14.141 9.373-22.627 9.373c-8.487 0-16.626-3.372-22.627-9.373s-9.373-14.141-9.373-22.627v-32h-96c-16.974 0-33.253-6.743-45.255-18.745s-18.745-28.281-18.745-45.255v-640c0-16.973 6.743-33.254 18.745-45.257s28.281-18.743 45.255-18.743h640c16.973 0 33.254 6.741 45.257 18.743s18.743 28.284 18.743 45.257v640c0 16.974-6.741 33.253-18.743 45.255s-28.284 18.745-45.257 18.745zM630.639 246.639c2.974-2.974 5.333-6.502 6.942-10.385 1.609-3.887 2.436-8.051 2.436-12.254s-0.828-8.367-2.436-12.254c-1.609-3.883-3.968-7.411-6.942-10.385s-6.502-5.333-10.385-6.942c-3.887-1.609-8.051-2.436-12.254-2.436s-8.367 0.828-12.254 2.436c-3.883 1.609-7.411 3.968-10.385 6.942l-73.361 73.399-73.361-73.399c-2.974-2.974-6.502-5.333-10.385-6.942-3.886-1.609-8.049-2.436-12.254-2.436s-8.368 0.828-12.253 2.436c-3.885 1.609-7.414 3.968-10.388 6.942s-5.331 6.502-6.941 10.385c-1.609 3.887-2.437 8.051-2.437 12.254s0.828 8.367 2.437 12.254c1.609 3.883 3.968 7.411 6.941 10.385l73.401 73.361-73.401 73.361c-6.004 6.003-9.378 14.148-9.378 22.639s3.373 16.636 9.378 22.639c6.005 6.007 14.149 9.378 22.64 9.378s16.636-3.371 22.639-9.378l73.361-73.399 73.361 73.399c2.974 2.974 6.502 5.333 10.385 6.942 3.887 1.609 8.051 2.436 12.254 2.436s8.367-0.828 12.254-2.436c3.883-1.609 7.411-3.968 10.385-6.942s5.333-6.502 6.942-10.385c1.609-3.887 2.436-8.051 2.436-12.254s-0.828-8.367-2.436-12.254c-1.609-3.883-3.968-7.411-6.942-10.385l-73.399-73.361 73.399-73.361zM832 608h-640v128h96v-32c0-8.487 3.372-16.626 9.373-22.627s14.141-9.373 22.627-9.373c8.487 0 16.626 3.372 22.627 9.373s9.373 14.141 9.373 22.627v32h320v-32c0-8.487 3.371-16.626 9.374-22.627 5.999-6.001 14.14-9.373 22.626-9.373s16.627 3.372 22.626 9.373c6.003 6.001 9.374 14.141 9.374 22.627v32h96v-128z" />
<glyph unicode="&#xe924;" glyph-name="caret-down" d="M854.639 553.363l-320-320.002c-2.97-2.974-6.502-5.333-10.385-6.942-3.887-1.613-8.047-2.441-12.254-2.441s-8.371 0.828-12.254 2.441c-3.887 1.609-7.415 3.968-10.385 6.942l-320.002 320.002c-6.004 6.004-9.378 14.148-9.378 22.64s3.373 16.636 9.378 22.64c6.005 6.004 14.149 9.378 22.64 9.378s16.635-3.373 22.64-9.378l297.361-297.399 297.361 297.399c2.97 2.973 6.502 5.331 10.385 6.941 3.887 1.609 8.047 2.437 12.254 2.437 4.203 0 8.367-0.828 12.254-2.437 3.883-1.609 7.411-3.968 10.385-6.941s5.333-6.503 6.942-10.388c1.609-3.884 2.436-8.048 2.436-12.253s-0.828-8.368-2.436-12.253c-1.609-3.885-3.968-7.414-6.942-10.387z" />
<glyph unicode="&#xe925;" glyph-name="caret-left" d="M662.639 150.643c2.974-2.974 5.333-6.502 6.942-10.389 1.609-3.883 2.436-8.047 2.436-12.25 0-4.207-0.828-8.371-2.436-12.254s-3.968-7.415-6.942-10.389c-2.97-2.97-6.502-5.329-10.385-6.938-3.887-1.609-8.047-2.436-12.254-2.436-4.203 0-8.367 0.828-12.254 2.436-3.883 1.609-7.411 3.968-10.385 6.938l-320.001 320c-2.975 2.974-5.335 6.502-6.946 10.389-1.61 3.883-2.439 8.047-2.439 12.254 0 4.203 0.829 8.367 2.439 12.254 1.61 3.883 3.971 7.411 6.946 10.385l320.001 320c6.003 6.004 14.148 9.378 22.639 9.378s16.636-3.373 22.639-9.378c6.007-6.004 9.378-14.149 9.378-22.64s-3.371-16.635-9.378-22.64l-297.399-297.359 297.399-297.361z" />
<glyph unicode="&#xe926;" glyph-name="caret-right" d="M726.639 425.361l-319.999-320c-2.973-2.97-6.503-5.329-10.387-6.938s-8.048-2.436-12.253-2.436c-4.205 0-8.368 0.828-12.253 2.436s-7.414 3.968-10.387 6.938c-2.973 2.974-5.332 6.507-6.941 10.389s-2.437 8.047-2.437 12.254c0 4.203 0.828 8.367 2.437 12.25 1.609 3.887 3.968 7.415 6.941 10.389l297.4 297.361-297.4 297.359c-6.004 6.004-9.378 14.148-9.378 22.64s3.373 16.636 9.378 22.64c6.004 6.004 14.148 9.378 22.64 9.378s16.635-3.373 22.64-9.378l319.999-320c2.978-2.974 5.338-6.502 6.946-10.385 1.613-3.887 2.441-8.051 2.441-12.254 0-4.207-0.828-8.371-2.441-12.254-1.609-3.887-3.968-7.415-6.946-10.389z" />
<glyph unicode="&#xe927;" glyph-name="caret-up" d="M854.639 297.357c-2.97-2.978-6.498-5.338-10.385-6.946-3.883-1.613-8.047-2.441-12.254-2.441s-8.371 0.828-12.254 2.441c-3.883 1.609-7.415 3.968-10.385 6.946l-297.361 297.399-297.36-297.399c-6.004-6.007-14.148-9.378-22.64-9.378s-16.636 3.371-22.64 9.378c-6.004 6.003-9.378 14.148-9.378 22.639s3.373 16.636 9.378 22.639l320.001 320.001c2.97 2.976 6.502 5.335 10.385 6.946s8.047 2.439 12.254 2.439c4.207 0 8.371-0.829 12.254-2.439 3.887-1.611 7.415-3.971 10.385-6.946l320-320.001c2.978-2.97 5.338-6.498 6.946-10.385 1.613-3.883 2.441-8.047 2.441-12.254s-0.828-8.371-2.441-12.254c-1.609-3.887-3.968-7.415-6.946-10.385z" />
<glyph unicode="&#xe928;" glyph-name="casino" d="M512 864c-82.278 0-162.706-24.398-231.117-70.109s-121.731-110.681-153.217-186.695c-31.486-76.013-39.724-159.657-23.673-240.352s55.671-154.82 113.85-213.001c58.179-58.18 132.303-97.801 213-113.852 80.695-16.051 164.339-7.812 240.354 23.676 76.011 31.484 140.983 84.804 186.692 153.216 45.713 68.412 70.11 148.838 70.11 231.117-0.115 110.294-43.981 216.038-121.971 294.028s-183.735 121.856-294.029 121.972zM512 256c-37.973 0-75.093 11.26-106.67 32.358-31.574 21.099-56.183 51.085-70.715 86.165-14.532 35.085-18.334 73.69-10.926 110.933s25.695 71.456 52.547 98.307c26.851 26.852 61.064 45.138 98.307 52.546s75.849 3.606 110.933-10.926c35.081-14.532 65.067-39.141 86.165-70.715 21.099-31.576 32.358-68.696 32.358-106.67-0.051-50.906-20.297-99.712-56.294-135.706-35.994-35.998-84.8-56.243-135.706-56.294zM668.838 650.12c-36.164 28.269-79.3 46.236-124.838 52v96.4c71.014-6.397 138.385-34.306 193.118-80l-68.279-68.4zM480 701.92c-45.538-5.764-88.675-23.731-124.84-52l-68.28 68.48c54.735 45.694 122.106 73.603 193.12 80v-96.48zM309.88 604.84c-28.269-36.166-46.236-79.302-52-124.84h-96.4c6.397 71.014 34.306 138.385 80 193.12l68.4-68.28zM258.080 416c5.764-45.538 23.731-88.674 52-124.838l-68.48-68.279c-45.694 54.733-73.603 122.103-80 193.118h96.48zM355.16 245.879c36.187-28.198 79.319-46.093 124.84-51.802v-96.597c-71.014 6.396-138.385 34.304-193.12 80l68.28 68.399zM544 194.078c45.521 5.709 88.653 23.603 124.838 51.802l68.279-68.279c-54.733-45.696-122.103-73.604-193.118-80v96.478zM714.121 291.162c28.198 36.186 46.093 79.317 51.797 124.838h96.602c-6.396-71.014-34.304-138.385-80-193.118l-68.399 68.279zM765.918 480c-5.705 45.521-23.599 88.652-51.797 124.84l68.279 68.28c45.696-54.735 73.604-122.106 80-193.12h-96.482z" />
<glyph unicode="&#xe929;" glyph-name="check-bold" d="M918.839 735.199c-26.402 26.437-69.278 26.42-95.714 0l-430.775-430.794-191.461 191.462c-26.438 26.436-69.292 26.436-95.729 0-26.438-26.441-26.438-69.295 0-95.731l239.316-239.317c13.21-13.21 30.533-19.831 47.857-19.831s34.663 6.605 47.873 19.831l478.635 478.652c26.436 26.419 26.436 69.292 0 95.728z" />
<glyph unicode="&#xe92a;" glyph-name="check-circle-fill" d="M512 864c-82.278 0-162.706-24.398-231.117-70.109s-121.731-110.681-153.216-186.695c-31.486-76.013-39.724-159.657-23.673-240.352s55.671-154.82 113.85-213.001c58.179-58.18 132.303-97.801 213-113.852 80.695-16.051 164.339-7.812 240.354 23.676 76.011 31.484 140.983 84.804 186.692 153.216 45.713 68.412 70.11 148.838 70.11 231.117-0.115 110.294-43.981 216.038-121.971 294.028s-183.735 121.856-294.029 121.972zM694.639 521.361l-224-224c-2.97-2.978-6.498-5.338-10.385-6.946-3.883-1.613-8.047-2.441-12.254-2.441s-8.371 0.828-12.254 2.441c-3.883 1.609-7.415 3.968-10.386 6.946l-96 96c-6.004 6.003-9.378 14.148-9.378 22.639s3.373 16.636 9.378 22.639c6.004 6.007 14.148 9.378 22.64 9.378s16.636-3.371 22.64-9.378l73.36-73.399 201.361 201.401c2.974 2.973 6.502 5.331 10.385 6.941 3.887 1.609 8.051 2.437 12.254 2.437 4.207 0 8.367-0.828 12.254-2.437 3.883-1.609 7.411-3.968 10.385-6.941s5.333-6.503 6.942-10.388c1.609-3.884 2.436-8.048 2.436-12.253s-0.828-8.368-2.436-12.254c-1.609-3.883-3.968-7.411-6.942-10.385z" />
<glyph unicode="&#xe92b;" glyph-name="check" d="M918.639 649.363l-512-512.002c-2.972-2.974-6.501-5.333-10.385-6.942-3.885-1.613-8.049-2.441-12.254-2.441s-8.369 0.828-12.254 2.441c-3.884 1.609-7.414 3.968-10.386 6.942l-224 224c-6.004 6.007-9.378 14.148-9.378 22.643 0 8.491 3.373 16.636 9.378 22.639s14.149 9.378 22.64 9.378c8.492 0 16.635-3.375 22.64-9.378l201.36-201.399 489.361 489.399c6.003 6.004 14.148 9.378 22.639 9.378s16.636-3.373 22.639-9.378c6.003-6.004 9.378-14.149 9.378-22.64s-3.375-16.635-9.378-22.64z" />
<glyph unicode="&#xe92c;" glyph-name="Clock" d="M512 864c-82.278 0-162.706-24.398-231.117-70.109s-121.731-110.681-153.216-186.695c-31.486-76.013-39.724-159.657-23.673-240.352s55.671-154.82 113.85-213.001c58.179-58.18 132.303-97.801 213-113.852 80.695-16.051 164.339-7.812 240.354 23.676 76.011 31.484 140.983 84.804 186.692 153.216 45.713 68.412 70.11 148.838 70.11 231.117-0.115 110.294-43.981 216.038-121.971 294.028s-183.735 121.856-294.029 121.972zM736 416h-224c-8.486 0-16.627 3.371-22.626 9.374-6.003 5.999-9.374 14.14-9.374 22.626v224c0 8.487 3.371 16.626 9.374 22.627 5.999 6.001 14.14 9.373 22.626 9.373s16.627-3.372 22.626-9.373c6.003-6.001 9.374-14.141 9.374-22.627v-192h192c8.486 0 16.627-3.371 22.626-9.374 6.003-5.999 9.374-14.14 9.374-22.626s-3.371-16.627-9.374-22.626c-5.999-6.003-14.14-9.374-22.626-9.374z" />
<glyph unicode="&#xe92d;" glyph-name="ClockCountdown" d="M840.034 579.006c0 9.743 2.889 19.266 8.303 27.366 5.41 8.1 13.103 14.414 22.106 18.142s18.906 4.704 28.459 2.803c9.557-1.901 18.334-6.592 25.225-13.481 6.886-6.889 11.58-15.666 13.478-25.221 1.903-9.555 0.926-19.459-2.803-28.46s-10.039-16.694-18.142-22.106c-8.102-5.411-17.626-8.3-27.366-8.3-13.065 0-25.591 5.188-34.829 14.426-9.242 9.238-14.43 21.767-14.43 34.831zM790.775 677.522c9.745 0 19.268 2.889 27.366 8.301 8.102 5.413 14.417 13.106 18.142 22.106 3.729 9.001 4.706 18.905 2.803 28.46-1.899 9.555-6.592 18.332-13.478 25.221-6.891 6.889-15.667 11.581-25.22 13.481-9.557 1.901-19.46 0.925-28.463-2.803-8.998-3.728-16.691-10.042-22.106-18.142s-8.303-17.624-8.303-27.366c0-13.064 5.193-25.593 14.43-34.831s21.764-14.427 34.829-14.427zM908.42 447.65c-8.674 0.717-17.28-2.044-23.923-7.671-6.643-5.623-10.778-13.658-11.499-22.336-5.879-68.651-31.241-134.195-73.105-188.924-41.865-54.724-98.487-96.354-163.213-119.991-64.721-23.637-134.848-28.297-202.129-13.431-67.278 14.865-128.913 48.64-177.65 97.344-48.737 48.708-82.549 110.319-97.457 177.591s-10.293 137.399 13.303 202.137c23.596 64.737 65.192 121.387 119.892 163.286s120.23 67.303 188.879 73.223c4.309 0.355 8.512 1.557 12.361 3.536 3.844 1.979 7.266 4.697 10.065 7.997s4.919 7.121 6.238 11.241c1.323 4.12 1.822 8.461 1.463 12.773-0.354 4.313-1.557 8.513-3.537 12.361-1.975 3.848-4.693 7.268-7.996 10.066s-7.121 4.918-11.243 6.24c-4.117 1.321-8.461 1.818-12.77 1.463-81.112-6.977-158.543-36.975-223.185-86.463s-113.804-116.41-141.704-192.89c-27.9-76.482-33.376-159.337-15.785-238.825s57.519-152.299 115.085-209.865c57.565-57.562 130.375-97.489 209.862-115.081s162.347-12.117 238.827 15.782c76.48 27.9 143.398 77.065 192.887 141.705s79.488 142.071 86.464 223.185c0.371 4.314-0.115 8.661-1.434 12.787-1.314 4.126-3.435 7.949-6.234 11.255-2.799 3.302-6.225 6.020-10.082 7.996s-8.064 3.166-12.382 3.507zM511.646 743.2c58.453 0 115.597-17.334 164.198-49.809s86.485-78.634 108.855-132.638c22.37-54.005 28.22-113.431 16.819-170.762-11.405-57.331-39.552-109.99-80.887-151.326-41.331-41.331-93.995-69.478-151.326-80.883s-116.757-5.551-170.761 16.819c-54.004 22.366-100.163 60.25-132.639 108.851s-49.809 105.745-49.809 164.198c0.087 78.357 31.253 153.482 86.66 208.889s130.531 86.574 208.888 86.661zM478.81 447.65c0-8.708 3.46-17.062 9.617-23.219 6.157-6.161 14.511-9.617 23.219-9.617h197.035c8.708 0 17.062 3.456 23.219 9.617 6.157 6.157 9.617 14.511 9.617 23.219s-3.46 17.062-9.617 23.219c-6.157 6.161-14.511 9.621-23.219 9.621h-164.194v164.193c0 8.71-3.46 17.062-9.617 23.22-6.161 6.159-14.515 9.618-23.223 9.618s-17.062-3.46-23.219-9.618c-6.157-6.159-9.617-14.511-9.617-23.22v-197.033zM643.004 776.039c9.741 0 19.264 2.889 27.366 8.301 8.098 5.413 14.413 13.106 18.142 22.106 3.725 9.001 4.702 18.905 2.803 28.46-1.903 9.555-6.592 18.332-13.483 25.221s-15.667 11.581-25.22 13.481c-9.557 1.901-19.46 0.925-28.459-2.803-9.003-3.728-16.695-10.042-22.11-18.142-5.41-8.101-8.299-17.624-8.299-27.366 0-13.064 5.188-25.593 14.426-34.831s21.769-14.427 34.833-14.427z" />
<glyph unicode="&#xe92e;" glyph-name="coins" d="M711.113 584.647v19.805c0 89.173-134.507 156.445-312.89 156.445s-312.889-67.271-312.889-156.445v-142.222c0-74.274 93.333-133.299 227.555-150.967v-19.699c0-89.173 134.505-156.446 312.89-156.446 178.381 0 312.887 67.273 312.887 156.446v142.221c0 73.6-90.381 132.695-227.554 150.863zM256 380.915c-69.653 19.447-113.778 51.482-113.778 81.314v50.027c29.013-20.553 67.876-37.12 113.778-48.247v-83.093zM540.446 464.009c45.901 11.127 84.762 27.695 113.775 48.247v-50.027c0-29.833-44.122-61.867-113.775-81.314v83.093zM483.554 210.249c-69.652 19.447-113.777 51.482-113.777 81.314v14.827c9.351-0.354 18.809-0.606 28.445-0.606 13.795 0 27.271 0.465 40.498 1.246 14.694-5.261 29.662-9.724 44.834-13.367v-83.413zM483.554 368.896c-28.25-4.173-56.772-6.255-85.332-6.221-28.559-0.034-57.081 2.048-85.333 6.221v84.587c28.294-3.686 56.8-5.517 85.333-5.474 28.534-0.043 57.040 1.788 85.332 5.474v-84.587zM711.113 198.229c-56.589-8.294-114.082-8.294-170.667 0v84.8c28.284-3.802 56.794-5.705 85.333-5.687 28.531-0.043 57.037 1.788 85.333 5.474v-84.587zM881.779 291.563c0-29.833-44.126-61.867-113.779-81.314v83.093c45.901 11.127 84.766 27.695 113.779 48.247v-50.027z" />
<glyph unicode="&#xe92f;" glyph-name="collapse" d="M192 800c-17.673 0-32-14.327-32-32v-640c0-17.673 14.327-32 32-32h640c17.673 0 32 14.327 32 32v640c0 17.673-14.327 32-32 32h-640zM96 768c0 53.019 42.981 96 96 96h640c53.018 0 96-42.981 96-96v-640c0-53.018-42.982-96-96-96h-640c-53.019 0-96 42.982-96 96v640zM384 864c17.673 0 32-14.327 32-32v-768c0-17.673-14.327-32-32-32s-32 14.327-32 32v768c0 17.673 14.327 32 32 32zM202.667 832c0 17.673 14.327 32 32 32h533.333c17.673 0 32-14.327 32-32s-14.327-32-32-32h-533.333c-17.673 0-32 14.327-32 32zM202.667 64c0 17.673 14.327 32 32 32h533.333c17.673 0 32-14.327 32-32s-14.327-32-32-32h-533.333c-17.673 0-32 14.327-32 32zM705.293 555.961c12.497-12.497 12.497-32.756 0-45.254l-62.703-62.707 62.703-62.707c12.497-12.497 12.497-32.755 0-45.252s-32.755-12.497-45.252 0l-85.333 85.333c-12.497 12.497-12.497 32.755 0 45.252l85.333 85.335c12.497 12.497 32.755 12.497 45.252 0z" />
<glyph unicode="&#xe930;" glyph-name="copy" d="M864 832h-512c-8.487 0-16.626-3.372-22.627-9.373s-9.373-14.141-9.373-22.627v-160h-160c-8.487 0-16.626-3.372-22.627-9.373s-9.373-14.141-9.373-22.627v-512c0-8.486 3.372-16.627 9.373-22.626 6.001-6.003 14.141-9.374 22.627-9.374h512c8.486 0 16.627 3.371 22.626 9.374 6.003 5.999 9.374 14.14 9.374 22.626v160h160c8.486 0 16.627 3.371 22.626 9.374 6.003 5.999 9.374 14.14 9.374 22.626v512c0 8.487-3.371 16.626-9.374 22.627-5.999 6.001-14.14 9.373-22.626 9.373zM832 320h-128v288c0 8.487-3.371 16.626-9.374 22.627-5.999 6.001-14.14 9.373-22.626 9.373h-288v128h448v-448z" />
<glyph unicode="&#xe931;" glyph-name="currency-circle-dollar" d="M512 876.958c-84.386 0-166.878-25.024-237.043-71.906s-124.852-113.519-157.145-191.482c-32.294-77.963-40.743-163.753-24.28-246.517s57.099-158.788 116.77-218.462c59.67-59.669 135.695-100.305 218.46-116.766 82.765-16.465 168.555-8.017 246.515 24.277 77.965 32.294 144.602 86.98 191.484 157.146s71.906 152.657 71.906 237.043c-0.119 113.123-45.111 221.578-125.099 301.568-79.991 79.989-188.446 124.98-301.568 125.1zM561.229 253.367h-16.41v-32.819c0-8.704-3.456-17.054-9.613-23.206-6.153-6.157-14.502-9.613-23.206-9.613s-17.054 3.456-23.206 9.613c-6.157 6.153-9.613 14.502-9.613 23.206v32.819h-65.642c-8.704 0-17.053 3.46-23.208 9.613-6.155 6.157-9.613 14.502-9.613 23.211 0 8.704 3.458 17.050 9.613 23.206 6.155 6.153 14.503 9.613 23.208 9.613h147.69c13.060 0 25.583 5.188 34.812 14.417 9.233 9.233 14.421 21.756 14.421 34.812 0 13.060-5.188 25.579-14.421 34.812-9.229 9.233-21.751 14.421-34.812 14.421h-98.458c-30.468 0-59.686 12.1-81.228 33.643s-33.645 50.761-33.645 81.229c0 30.465 12.102 59.683 33.645 81.226s50.76 33.645 81.228 33.645h16.41v32.82c0 8.704 3.456 17.053 9.613 23.208 6.153 6.155 14.502 9.613 23.206 9.613s17.054-3.458 23.206-9.613c6.157-6.155 9.613-14.503 9.613-23.208v-32.82h65.643c8.704 0 17.054-3.458 23.206-9.613 6.157-6.155 9.613-14.503 9.613-23.207s-3.456-17.053-9.613-23.208c-6.153-6.155-14.502-9.613-23.206-9.613h-147.691c-13.060 0-25.579-5.187-34.812-14.42s-14.421-21.754-14.421-34.811c0-13.056 5.187-25.579 14.421-34.812s21.751-14.421 34.812-14.421h98.458c30.468 0 59.686-12.1 81.229-33.643s33.647-50.761 33.647-81.229c0-30.464-12.105-59.682-33.647-81.225s-50.761-33.647-81.229-33.647z" />
<glyph unicode="&#xe932;" glyph-name="default" d="M512 96c-194.404 0-352 157.598-352 352 0 194.404 157.596 352 352 352 194.402 0 352-157.596 352-352 0-194.402-157.598-352-352-352zM512 32c229.751 0 416 186.249 416 416s-186.249 416-416 416c-229.751 0-416-186.249-416-416s186.249-416 416-416z" />
<glyph unicode="&#xe933;" glyph-name="dieu-khoan" d="M912.213 558.661c-31.074 26.127-78.622 23.015-105.604-9.157l-16.213-19.183 114.923-96.431 15.484 19.115c26.628 31.671 23.262 78.972-8.589 105.656zM587.635 290.419l-8.55-10.121c-7.424-8.887-12.77-19.511-15.458-30.767l-23.245-97.28c-2.197-9.203 1.003-18.876 8.252-24.956 7.061-5.931 17.015-7.654 26.010-3.81l91.785 39.804c10.62 4.617 20.143 11.721 27.567 20.535l8.58 10.155-114.94 96.439zM758.131 492.143l-138.227-163.546 114.935-96.444 138.214 163.563-114.923 96.427zM712.064 763.873l-94.985 90.248c-8.981 8.513-20.028 13.527-31.671 16.784v-146.198h148.442c-3.102 14.852-10.667 28.611-21.786 39.166zM514.987 261.154c4.471 18.705 13.38 36.407 25.737 51.204l194.705 230.39v131.951h-175.023c-13.82 0-25.007 11.183-25.007 25.004v175.026h-375.054c-41.363 0-75.011-33.648-75.011-75.011v-703.436c0-41.365 33.648-75.012 75.011-75.012h500.076c41.361 0 75.008 33.647 75.008 75.012v59.106l-3.247-3.844c-12.279-14.626-28.126-26.419-45.781-34.112l-91.861-39.825c-25.89-11.179-55.859-7.219-78.037 11.354-21.901 18.385-31.398 47.078-24.759 74.914l23.245 97.28zM210.352 724.707h250.039c13.82 0 25.003-11.183 25.003-25.004s-11.183-25.004-25.003-25.004h-250.039c-13.82 0-25.004 11.183-25.004 25.004s11.183 25.004 25.004 25.004zM210.352 573.018h400.059c13.82 0 25.003-11.183 25.003-25.004s-11.183-25.002-25.003-25.002h-400.059c-13.82 0-25.004 11.181-25.004 25.002s11.183 25.004 25.004 25.004zM410.382 222.967h-200.030c-13.82 0-25.004 11.183-25.004 25.003s11.183 25.003 25.004 25.003h200.030c13.821 0 25.002-11.183 25.002-25.003s-11.181-25.003-25.002-25.003zM210.352 372.988c-13.82 0-25.004 11.183-25.004 25.003s11.183 25.007 25.004 25.007h300.044c13.82 0 25.003-11.187 25.003-25.007s-11.183-25.003-25.003-25.003h-300.044z" />
<glyph unicode="&#xe934;" glyph-name="sport" d="M512 874.667c-235.639 0-426.667-191.028-426.667-426.667s191.028-426.667 426.667-426.667c235.639 0 426.667 191.027 426.667 426.667-0.265 235.528-191.138 426.403-426.667 426.667zM527.228 751.66l148.326 59.292c16.836-7.618 33.118-16.396 48.738-26.271l0.388-0.243c15.347-9.722 30.016-20.479 43.904-32.194l1.195-1.042c6.229-5.306 12.284-10.799 18.172-16.465 0.742-0.729 1.523-1.424 2.266-2.167 6.174-6.028 12.151-12.243 17.937-18.639 0.478-0.542 0.939-1.111 1.417-1.653 5.077-5.687 9.958-11.576 14.694-17.562 1.139-1.424 2.278-2.847 3.379-4.271 5.141-6.653 10.112-13.423 14.81-20.41l-29.572-125.694-145.476-48.498-140.143 112.13-0.034 143.687zM196.34 690.361c1.104 1.423 2.229 2.847 3.368 4.264 4.681 5.937 9.521 11.729 14.521 17.382 0.541 0.597 1.041 1.208 1.576 1.806 5.75 6.41 11.701 12.618 17.868 18.632 0.708 0.694 1.417 1.423 2.159 2.063 5.841 5.632 11.847 11.090 18.021 16.368l1.423 1.195c13.764 11.632 28.292 22.319 43.486 32l0.556 0.354c15.528 9.854 31.708 18.618 48.445 26.243l149.008-59.007v-143.645l-140.147-112.112-145.479 48.41-29.569 125.695c4.736 6.972 9.652 13.729 14.764 20.354zM179.201 229.756c-4.18 6.374-8.18 12.868-11.993 19.486l-0.924 1.6c-3.792 6.583-7.382 13.278-10.764 20.075l-0.118 0.218c-7.125 14.302-13.382 29.026-18.729 44.087v0.141c-2.528 7.108-4.833 14.396-6.965 21.722l-0.771 2.701c-1.951 6.882-3.722 13.841-5.306 20.877-0.139 0.687-0.312 1.34-0.451 2.018-3.493 15.889-6 31.974-7.514 48.175l86.826 104.188 144.472-48.154 41.931-167.71-68.896-91.665-140.799 22.242zM606.707 61.257c-7.108-1.762-14.409-3.285-21.709-4.651-1.020-0.205-2.061-0.371-3.081-0.559-6.217-1.109-12.501-2.061-18.799-2.837-1.681-0.218-3.349-0.444-5.022-0.649-5.845-0.678-11.75-1.195-17.668-1.617-1.86-0.124-3.699-0.311-5.559-0.431-7.565-0.465-15.189-0.734-22.869-0.734-7.036 0-14.029 0.188-20.979 0.555-0.841 0-1.647 0.137-2.487 0.201-6.187 0.354-12.348 0.819-18.492 1.417l-0.708 0.132c-13.466 1.459-26.854 3.597-40.102 6.396l-84.127 131.716 67.812 90.423h198.168l68.924-91.021-73.301-128.341zM900.924 362.667c-0.145-0.683-0.311-1.34-0.457-2.022-1.591-7.027-3.362-13.986-5.308-20.873l-0.764-2.701c-2.138-7.326-4.437-14.583-6.972-21.722v-0.141c-5.346-15.061-11.597-29.786-18.731-44.092l-0.115-0.213c-3.405-6.805-6.989-13.5-10.765-20.079l-0.926-1.596c-3.789-6.639-7.782-13.116-11.972-19.456l-140.318-22.127-69.376 91.588 41.911 167.667 144.469 48.154 86.827-104.188c-1.506-16.209-4.011-32.303-7.505-48.201z" />
<glyph unicode="&#xe935;" glyph-name="eye-slash" d="M400.64 697.349c-1.68 1.84-2.847 4.089-3.384 6.522s-0.425 4.964 0.323 7.341c0.749 2.376 2.109 4.514 3.944 6.199s4.081 2.86 6.512 3.404c34.102 7.793 68.982 11.694 103.965 11.627 124.019 0 236.693-47.147 325.901-136.356 66.953-66.951 97.067-133.759 98.313-136.57 1.617-3.635 2.453-7.573 2.453-11.554s-0.836-7.919-2.453-11.554c-1.246-2.812-31.36-69.585-98.313-136.533-10.142-10.099-20.561-19.665-31.253-28.693-2.812-2.389-6.443-3.593-10.125-3.354s-7.125 1.903-9.609 4.634l-386.274 424.888zM817.493 154.236c2.564-2.752 4.557-5.99 5.862-9.523 1.306-3.529 1.894-7.283 1.737-11.042-0.154-3.763-1.058-7.454-2.654-10.863-1.591-3.413-3.849-6.473-6.635-9.003s-6.046-4.484-9.591-5.747c-3.546-1.263-7.309-1.809-11.068-1.604-3.759 0.201-7.437 1.148-10.829 2.782-3.392 1.638-6.421 3.93-8.922 6.746l-78.507 86.221c-58.223-25.749-121.225-38.921-184.887-38.647-124.018 0-236.693 47.147-325.903 136.32-66.951 66.948-97.209 133.722-98.311 136.533-1.617 3.635-2.453 7.573-2.453 11.554s0.836 7.919 2.453 11.554c1.103 2.705 31.36 69.619 98.311 136.57 26.748 26.871 56.586 50.479 88.889 70.329l-68.48 75.342c-2.565 2.755-4.557 5.992-5.862 9.523s-1.896 7.285-1.738 11.046c0.157 3.761 1.059 7.453 2.653 10.863s3.85 6.469 6.636 9.001c2.785 2.531 6.046 4.485 9.592 5.747s7.308 1.808 11.066 1.606c3.759-0.202 7.44-1.149 10.83-2.784s6.423-3.927 8.92-6.743l568.889-625.78zM584.64 325.794l-187.343 206.221c-19.304-26.449-28.89-58.752-27.139-91.447 1.751-32.7 14.731-63.791 36.749-88.030 22.016-24.235 51.725-40.132 84.105-45.005s65.451 1.574 93.628 18.261z" />
<glyph unicode="&#xe936;" glyph-name="eye" d="M936.213 459.511c-1.246 2.812-31.36 69.619-98.313 136.57-89.207 89.209-201.882 136.355-325.901 136.355-124.018 0-236.693-47.147-325.903-136.355-66.951-66.951-97.209-133.865-98.311-136.57-1.617-3.635-2.453-7.573-2.453-11.554s0.836-7.919 2.453-11.554c1.245-2.812 31.36-69.585 98.311-136.533 89.209-89.173 201.885-136.32 325.903-136.32s236.693 47.147 325.901 136.32c66.953 66.948 97.067 133.722 98.313 136.533 1.617 3.635 2.453 7.573 2.453 11.554s-0.836 7.919-2.453 11.554zM512 305.771c-28.13 0-55.625 8.341-79.014 23.97-23.389 15.625-41.617 37.837-52.382 63.825s-13.581 54.583-8.093 82.172c5.488 27.588 19.033 52.932 38.924 72.822 19.892 19.89 45.232 33.435 72.82 38.923s56.183 2.671 82.172-8.093c25.988-10.764 48.201-28.993 63.829-52.383 15.625-23.386 23.966-50.884 23.966-79.014 0-37.717-14.985-73.894-41.655-100.565s-62.844-41.655-100.565-41.655z" />
<glyph unicode="&#xe937;" glyph-name="filter" d="M705.941 719.511c0 23.014 6.822 45.512 19.61 64.648s30.959 34.051 52.22 42.858c21.265 8.807 44.663 11.112 67.234 6.622s43.307-15.572 59.58-31.846c16.273-16.274 27.358-37.008 31.846-59.58s2.185-45.969-6.622-67.232c-8.806-21.263-23.723-39.436-42.859-52.222s-41.634-19.611-64.649-19.611c-30.861 0-60.459 12.26-82.278 34.082-21.824 21.823-34.082 51.42-34.082 82.282zM124.121 680.724h465.455c10.287 0 20.151 4.087 27.426 11.36s11.362 17.14 11.362 27.427c0 10.287-4.087 20.153-11.362 27.427s-17.139 11.361-27.426 11.361h-465.455c-10.287 0-20.153-4.087-27.427-11.361s-11.361-17.14-11.361-27.427c0-10.287 4.087-20.153 11.361-27.427s17.14-11.36 27.427-11.36zM356.849 564.36c-24.008-0.067-47.407-7.559-66.989-21.447s-34.39-33.494-42.393-56.128h-123.345c-10.287 0-20.153-4.087-27.427-11.362s-11.361-17.139-11.361-27.426c0-10.287 4.087-20.151 11.361-27.426s17.14-11.362 27.427-11.362h123.345c7.116-20.126 19.631-37.905 36.175-51.396s36.481-22.17 57.628-25.088c21.146-2.914 42.688 0.038 62.268 8.546 19.579 8.503 36.441 22.229 48.742 39.68 12.301 17.446 19.563 37.939 20.996 59.238s-3.021 42.581-12.873 61.521c-9.856 18.935-24.725 34.797-42.991 45.847-18.264 11.051-39.217 16.864-60.563 16.804zM899.878 486.784h-310.302c-10.287 0-20.156-4.087-27.426-11.362-7.275-7.275-11.362-17.139-11.362-27.426s4.087-20.151 11.362-27.426c7.27-7.275 17.139-11.362 27.426-11.362h310.302c10.287 0 20.151 4.087 27.426 11.362s11.362 17.139 11.362 27.426c0 10.287-4.087 20.151-11.362 27.426s-17.139 11.362-27.426 11.362zM434.423 215.27h-310.302c-10.287 0-20.153-4.087-27.427-11.362s-11.361-17.139-11.361-27.426c0-10.287 4.087-20.156 11.361-27.426 7.274-7.275 17.14-11.362 27.427-11.362h310.302c10.287 0 20.156 4.087 27.426 11.362 7.275 7.27 11.362 17.139 11.362 27.426s-4.087 20.151-11.362 27.426c-7.27 7.275-17.139 11.362-27.426 11.362zM899.878 215.27h-123.345c-9.152 25.877-27.153 47.689-50.829 61.581-23.68 13.888-51.503 18.961-78.558 14.319s-51.597-18.701-69.291-39.689c-17.69-20.983-27.396-47.552-27.396-74.999 0-27.452 9.707-54.016 27.396-75.004 17.694-20.988 42.236-35.042 69.291-39.684s54.878 0.431 78.558 14.319c23.676 13.888 41.677 35.699 50.829 61.581h123.345c10.287 0 20.151 4.087 27.426 11.362 7.275 7.27 11.362 17.139 11.362 27.426s-4.087 20.151-11.362 27.426c-7.275 7.275-17.139 11.362-27.426 11.362z" />
<glyph unicode="&#xe938;" glyph-name="fire" d="M573.521 888.606c-3.947 3.28-8.623 5.563-13.632 6.657-5.013 1.094-10.214 0.967-15.168-0.37s-9.51-3.846-13.291-7.313c-3.78-3.468-6.673-7.794-8.431-12.614l-88-241.64-96.64 93.64c-3.245 3.148-7.121 5.572-11.372 7.113s-8.78 2.164-13.288 1.828c-4.509-0.336-8.895-1.624-12.87-3.779s-7.448-5.127-10.19-8.722c-86.64-113.52-130.64-227.718-130.64-339.398 0-93.359 37.085-182.891 103.098-248.905s155.545-103.095 248.902-103.095c93.355 0 182.891 37.082 248.9 103.095 66.014 66.014 103.1 155.546 103.1 248.905 0 237.798-203.162 431.998-290.479 504.598zM735.561 346.645c-8.299-46.349-30.596-89.041-63.893-122.33-33.297-33.293-75.998-55.582-122.347-63.868-1.758-0.303-3.537-0.448-5.321-0.439-8.026 0-15.761 3.021-21.666 8.457s-9.553 12.894-10.214 20.894c-0.666 7.996 1.698 15.953 6.626 22.293 4.928 6.336 12.058 10.586 19.972 11.913 66.283 11.162 122.522 67.401 133.76 133.803 1.425 8.371 6.114 15.834 13.035 20.745 6.925 4.915 15.518 6.878 23.889 5.453 8.367-1.421 15.829-6.11 20.745-13.030 4.915-6.925 6.874-15.518 5.453-23.889h-0.038z" />
<glyph unicode="&#xe939;" glyph-name="game-center" d="M416 800h-192c-16.974 0-33.253-6.743-45.255-18.745s-18.745-28.281-18.745-45.255v-192c0-16.973 6.743-33.254 18.745-45.257s28.281-18.743 45.255-18.743h192c16.973 0 33.254 6.741 45.257 18.743s18.743 28.284 18.743 45.257v192c0 16.974-6.741 33.253-18.743 45.255s-28.284 18.745-45.257 18.745zM416 544h-192v192h192v-192zM800 800h-192c-16.973 0-33.254-6.743-45.257-18.745s-18.743-28.281-18.743-45.255v-192c0-16.973 6.741-33.254 18.743-45.257s28.284-18.743 45.257-18.743h192c16.973 0 33.254 6.741 45.257 18.743s18.743 28.284 18.743 45.257v192c0 16.974-6.741 33.253-18.743 45.255s-28.284 18.745-45.257 18.745zM800 544h-192v192h192v-192zM416 416h-192c-16.974 0-33.253-6.741-45.255-18.743s-18.745-28.284-18.745-45.257v-192c0-16.973 6.743-33.254 18.745-45.257s28.281-18.743 45.255-18.743h192c16.973 0 33.254 6.741 45.257 18.743s18.743 28.284 18.743 45.257v192c0 16.973-6.741 33.254-18.743 45.257s-28.284 18.743-45.257 18.743zM416 160h-192v192h192v-192zM800 416h-192c-16.973 0-33.254-6.741-45.257-18.743s-18.743-28.284-18.743-45.257v-192c0-16.973 6.741-33.254 18.743-45.257s28.284-18.743 45.257-18.743h192c16.973 0 33.254 6.741 45.257 18.743s18.743 28.284 18.743 45.257v192c0 16.973-6.741 33.254-18.743 45.257s-28.284 18.743-45.257 18.743zM800 160h-192v192h192v-192z" />
<glyph unicode="&#xe93a;" glyph-name="hand-deposit" d="M511.599 116.352c-99.247 0-198.495 0-297.443 0-41.079 0-74.362 25.929-83.657 65.425-1.499 6.63-2.099 13.862-2.099 20.8 0 83.814 0 167.927 0 251.742 0 9.95 1.799 11.759 11.694 11.759 83.056 0 165.813 0 248.87 0 3.598 0 7.796-1.506 10.795-3.618 54.27-37.687 112.74-47.334 175.11-25.626 17.685 6.029 33.28 17.485 50.074 26.53 2.995 1.506 6.298 3.017 9.591 3.017 83.059 0.299 165.815 0 248.87 0 11.093 0 12.595-1.51 12.595-12.663 0-83.213 0-166.421 0-249.331 0-51.554-36.279-87.735-87.253-87.735-99.247-0.299-198.199-0.299-297.148-0.299zM284.019 309.303c-27.585 2.112-35.981-9.647-36.281-35.273-0.3-28.339 8.996-37.385 36.881-37.385 26.386 0 35.981 9.344 35.981 36.177 0 28.339-9.595 38.895-36.581 36.48zM511.603 459.447c-87.856 0-159.219 71.45-159.219 159.786s71.063 160.391 158.916 160.391c88.452 0 159.518-71.452 159.817-160.391-0.299-88.034-71.364-159.488-159.514-159.786zM495.113 570.091c-0.602-0.302-1.502-0.603-2.103-0.905-13.794 13.868-27.285 28.038-41.075 41.606-8.098 8.14-18.291 8.441-25.19 1.205-6.895-7.235-6.295-16.582 1.801-24.721 23.087-23.215 46.178-46.429 69.265-69.644 8.994-9.045 18.291-9.045 27.285 0 23.087 22.913 45.875 46.127 68.962 69.342 8.098 8.14 8.695 18.391 2.099 25.326-7.194 7.235-17.092 6.633-25.783-1.809-12.297-12.361-24.589-24.721-37.184-37.384-1.199-1.206-2.697-2.412-5.094-4.221 0 3.919 0 6.633 0 9.346 0 42.811 0 85.321 0 128.132 0 2.714 0 5.427-0.303 8.14-1.498 8.743-8.695 14.772-17.69 14.17-8.397-0.603-14.694-6.934-15.292-15.677-0.299-2.412 0-5.126 0-7.537 0-42.51 0-84.718 0-127.228 0.299-2.713 0.303-5.427 0.303-8.14zM700.198 647.271c8.094 0 15.595 0 23.087 0 28.787 0 57.57 0 86.054 0 50.074-0.302 86.054-36.48 86.357-87.13 0-11.758 0-23.516 0-35.273 0-6.933-2.701-10.253-9.894-10.253-69.564 0-139.426 0-208.99 0-0.9 0-1.801 0.303-3.9 0.606 25.186 40.7 33.882 84.415 27.285 132.050zM323.599 646.362c-6.597-47.032 2.398-90.447 27.285-131.751-3.898 0-6.296 0-8.695 0-67.165 0-134.33 0-201.495 0-11.394 0-13.193 1.51-12.593 13.265 0.599 18.995-0.6 38.592 3.298 56.982 7.196 34.671 39.579 61.202 74.661 62.408 38.38 1.206 76.76 0.302 115.439 0.302 0.6-0.603 0.899-0.904 2.099-1.206z" />
<glyph unicode="&#xe93b;" glyph-name="hand-withdraw" d="M292.076 598.807c147.011 0 292.641 0 439.658 0 0-3.106 0-6.212 0-8.973 0-142.18 0-284.017 0-426.199 0-51.418-35.204-86.618-86.622-86.618-88.691 0-177.724 0-266.416 0-51.075 0-86.275 35.2-86.275 86.272 0 142.182 0 284.71 0 426.89-0.345 2.415-0.345 4.831-0.345 8.628zM476.356 315.482c-0.687-0.346-1.378-0.691-2.069-1.037-8.627 9.664-16.909 18.982-25.536 28.642-14.494 15.876-36.926 17.6-52.456 4.143-15.184-13.116-16.22-36.237-2.416-52.459 7.247-8.623 14.495-16.905 22.087-25.19 18.291-19.324 38.306-37.269 62.118-50.035 22.084-11.738 44.173-13.116 66.607-1.382 7.245 3.797 15.181 7.59 21.393 12.77 19.669 17.6 38.997 35.541 57.98 53.833 5.521 5.175 10.005 12.079 13.457 18.637 10.355 20.015 0.341 44.169-21.056 51.076-15.181 4.83-28.297 1.378-38.993-10.355-8.627-9.664-17.254-19.324-26.227-28.988-0.691 0.346-1.378 0.687-2.069 1.033 0 3.106 0 6.212 0 9.323 0 45.892 0 92.139 0 138.039 0 4.139 0.346 8.282-0.691 12.075-4.139 18.637-20.706 30.37-40.38 27.955-18.287-2.074-31.403-16.909-31.748-35.891 0-47.279 0-94.903 0-142.178 0-3.802 0-6.908 0-10.010zM237.55 434.193c-22.776-0.346-44.173-1.724-63.843 8.627-29.334 15.531-45.553 40.034-45.553 73.506-0.345 73.507 0 147.358 0 220.864 0 43.828 34.855 79.718 78.338 81.444 2.761 0 5.867 0.345 8.628 0.345 198.087 0 396.175 0 594.264 0 36.924 0 64.183-15.529 80.064-49.004 4.139-8.627 5.862-18.635 6.208-28.298 0.346-75.922 0.346-151.843 0.346-227.765 0-38.306-28.988-72.469-66.953-77.99-13.111-2.074-26.918-1.382-41.754-2.415 0 4.484 0 7.936 0 11.038 0 59.012 0 118.026 0 176.693 0 22.431-10.355 32.784-32.785 32.784-161.161 0-322.667 0-483.829 0-22.087 0-32.785-10.353-32.785-32.784 0-58.667 0-117.335 0-176.002-0.345-3.452-0.345-6.899-0.345-11.042z" />
<glyph unicode="&#xe93c;" glyph-name="history" d="M938.667 447.957c0-80.004-23.424-158.255-67.388-225.097s-106.539-119.343-180.002-151.023c-73.463-31.684-154.594-41.161-233.382-27.26-78.784 13.901-151.775 50.569-209.958 105.481-3.261 3.081-5.883 6.775-7.717 10.871s-2.842 8.512-2.969 12.996c-0.127 4.484 0.631 8.951 2.231 13.141 1.599 4.194 4.008 8.030 7.090 11.29 6.224 6.588 14.809 10.432 23.866 10.688 4.485 0.124 8.951-0.631 13.143-2.231s8.028-4.011 11.289-7.091c48.8-46.037 110.084-76.676 176.196-88.081s134.118-3.081 195.524 23.945c61.406 27.025 113.485 71.543 149.734 127.996 36.25 56.457 55.057 122.338 54.071 189.419-0.981 67.081-21.709 132.387-59.593 187.755-37.888 55.368-91.247 98.344-153.417 123.558-62.174 25.214-130.394 31.548-196.143 18.211s-126.112-45.755-173.542-93.202c-15.061-15.232-29.227-30.208-43.008-45.098l69.589-69.717c4.779-4.774 8.034-10.858 9.353-17.483s0.643-13.492-1.942-19.732c-2.586-6.241-6.965-11.574-12.583-15.325s-12.222-5.747-18.977-5.743h-170.667c-9.053 0-17.735 3.597-24.136 9.997s-9.997 15.084-9.997 24.137v170.666c-0.005 6.755 1.994 13.36 5.744 18.978s9.083 9.997 15.324 12.583c6.24 2.586 13.108 3.262 19.732 1.943s12.709-4.575 17.483-9.354l52.651-52.736c13.739 14.891 27.904 29.866 42.923 45.013 57.262 57.36 130.255 96.442 209.737 112.3 79.484 15.858 161.886 7.778 236.779-23.217 74.889-30.995 138.897-83.511 183.927-150.901s69.056-146.626 69.035-227.675zM529.067 686.891c-9.054 0-17.737-3.596-24.137-9.997s-9.997-15.083-9.997-24.136v-204.8c0-5.892 1.523-11.686 4.425-16.815s7.078-9.421 12.13-12.454l170.667-102.4c3.844-2.308 8.102-3.836 12.54-4.497 4.433-0.666 8.956-0.444 13.303 0.64 4.352 1.084 8.444 3.017 12.049 5.683 3.605 2.671 6.647 6.020 8.956 9.865s3.836 8.107 4.497 12.54c0.666 4.433 0.444 8.956-0.64 13.308-1.084 4.348-3.017 8.444-5.683 12.045-2.671 3.605-6.020 6.647-9.865 8.956l-154.112 92.459v185.472c0 9.053-3.597 17.734-9.997 24.136s-15.083 9.997-24.137 9.997z" />
<glyph unicode="&#xe93d;" glyph-name="hourglass" d="M807.381 662.813v146.214c0 17.409-6.916 34.105-19.226 46.415s-29.005 19.226-46.413 19.226h-459.484c-17.409 0-34.105-6.916-46.415-19.226s-19.226-29.006-19.226-46.415v-147.691c0.022-10.186 2.404-20.229 6.96-29.34s11.16-17.042 19.296-23.172l214.44-160.819-214.44-160.819c-8.136-6.127-14.74-14.059-19.296-23.172-4.556-9.109-6.938-19.153-6.96-29.338v-147.691c0-17.412 6.915-34.108 19.226-46.417s29.006-19.226 46.415-19.226h459.484c17.408 0 34.103 6.916 46.413 19.226s19.226 29.005 19.226 46.417v146.21c-0.021 10.15-2.385 20.156-6.903 29.239-4.518 9.088-11.072 17.011-19.149 23.151l-214.891 162.419 214.891 162.419c8.077 6.143 14.63 14.065 19.149 23.151s6.882 19.091 6.903 29.239zM741.743 233.195v-146.21h-459.484v147.691l196.922 147.691v-98.462c0-8.704 3.456-17.054 9.613-23.206 6.153-6.157 14.502-9.613 23.206-9.613s17.054 3.456 23.206 9.613c6.157 6.153 9.613 14.502 9.613 23.206v98.133l196.924-148.843zM741.743 662.813l-23.671-17.887h-413.946l-21.867 16.41v147.691h459.484v-146.214z" />
<glyph unicode="&#xe93e;" glyph-name="search-2" d="M918.639 86.63l-200.282 200.239c58.052 69.692 86.997 159.083 80.819 249.572s-47.006 175.115-113.988 236.271c-66.982 61.155-154.965 94.132-245.641 92.072-90.678-2.061-177.071-39.001-241.206-103.136s-101.076-150.528-103.136-241.204c-2.061-90.679 30.917-178.658 92.072-245.641 61.155-66.987 145.78-107.81 236.271-113.988s179.878 22.767 249.57 80.815l200.239-200.277c2.974-2.974 6.507-5.333 10.389-6.942s8.047-2.436 12.254-2.436c4.203 0 8.367 0.828 12.25 2.436 3.887 1.609 7.415 3.968 10.389 6.942 2.974 2.97 5.333 6.502 6.942 10.385 1.609 3.887 2.436 8.047 2.436 12.254 0 4.203-0.828 8.367-2.436 12.254-1.609 3.883-3.968 7.411-6.942 10.385zM159.999 511.991c0 56.96 16.891 112.642 48.537 160.004s76.625 84.275 129.251 106.073c52.625 21.798 110.534 27.502 166.397 16.389 55.868-11.113 107.183-38.542 147.46-78.819s67.708-91.594 78.822-147.461c11.11-55.866 5.41-113.773-16.388-166.398s-58.714-97.604-106.074-129.25c-47.364-31.646-103.044-48.538-160.004-48.538-76.358 0.085-149.562 30.455-203.555 84.446s-84.362 127.198-84.447 203.554z" />
<glyph unicode="&#xe93f;" glyph-name="info" d="M512 874.667c-84.386 0-166.878-25.024-237.043-71.906s-124.852-113.519-157.145-191.482c-32.294-77.962-40.743-163.752-24.28-246.517s57.099-158.788 116.77-218.462c59.67-59.669 135.695-100.305 218.46-116.766 82.765-16.465 168.555-8.017 246.515 24.277 77.965 32.294 144.602 86.98 191.484 157.146s71.906 152.657 71.906 237.043c-0.119 113.123-45.111 221.577-125.099 301.567-79.991 79.989-188.446 124.98-301.568 125.1zM495.59 677.744c9.737 0 19.255-2.888 27.349-8.297 8.098-5.41 14.409-13.098 18.133-22.094s4.702-18.895 2.803-28.444c-1.903-9.55-6.592-18.322-13.474-25.207-6.886-6.885-15.659-11.574-25.207-13.473s-19.447-0.925-28.446 2.801c-8.994 3.726-16.683 10.036-22.093 18.132s-8.299 17.614-8.299 27.351c0 13.057 5.188 25.579 14.421 34.811s21.756 14.42 34.812 14.42zM544.819 218.257c-17.408 0-34.103 6.916-46.413 19.226s-19.226 29.005-19.226 46.413v164.105c-8.704 0-17.054 3.456-23.211 9.613-6.153 6.157-9.613 14.502-9.613 23.206s3.46 17.054 9.613 23.211c6.157 6.153 14.507 9.613 23.211 9.613 17.408 0 34.103-6.916 46.413-19.226 12.309-12.314 19.226-29.009 19.226-46.417v-164.105c8.704 0 17.054-3.456 23.211-9.613 6.153-6.153 9.613-14.502 9.613-23.206s-3.46-17.054-9.613-23.206c-6.157-6.157-14.507-9.613-23.211-9.613z" />
<glyph unicode="&#xe940;" glyph-name="jackpot" d="M218.667 507.998v-219.998h466.667v219.998c-55.181 0-411.573 0-466.667 0zM352 354.667h-66.667v86.665h66.667v-86.665zM485.333 354.667h-66.667v86.665h66.667v-86.665zM618.667 441.331v-86.665h-66.667v86.665h66.667zM452.002 741.333c-98.607 0-187.017-62.502-219.997-155.529l62.835-22.276c23.567 66.475 86.723 111.138 157.162 111.138 70.434 0 133.589-44.663 157.158-111.138l62.835 22.276c-32.981 93.027-121.391 155.529-219.994 155.529zM872 488v-233.335c0-18.377-14.955-33.331-33.335-33.331h-19.998v286.665c0 202.647-163.994 366.669-366.665 366.669-202.652 0-366.669-163.997-366.669-366.669v-486.665h733.333v133.333h19.998c55.142 0 100.002 44.86 100.002 99.998v233.335h-66.667zM752 88h-600v419.998c0 165.422 134.58 300.002 300.002 300.002 165.419 0 299.998-134.58 299.998-300.002v-419.998zM218.667 221.333h466.667v-66.667h-466.667v66.667z" />
<glyph unicode="&#xe941;" glyph-name="khuyen-mai" d="M462.281 400.828c-73.155 0-288.46 0-288.46 0-22.856 0-41.558-17.963-41.558-39.919v-299.652c0-21.961 18.702-39.923 41.558-39.923 0 0 219.81 0 293.311 0 9.775 0 9.775 10.091 9.775 10.091v355.84c0 0-0.004 13.564-14.626 13.564zM850.18 400.828c0 0-216.128 0-288.166 0-17.549 0-14.921-17.557-14.921-17.557v-352.171c0 0-0.145-9.758 10.415-9.758 73.165 0 292.668 0 292.668 0 22.857 0 41.557 17.963 41.557 39.923v299.644c0.009 21.956-18.697 39.919-41.553 39.919zM476.902 636.602c0 0 0 13.528-13.914 13.528-83.325 0-336.097 0-336.097 0-22.856 0-41.558-17.967-41.558-39.921v-124.624c0-21.956 18.702-39.919 41.558-39.919 0 0 253.905 0 337.236 0 12.774 0 12.774 10.645 12.774 10.645v180.291zM897.109 650.13c0 0-252.877 0-337.169 0-12.843 0-12.843-11.754-12.843-11.754v-182.313c0 0 0-10.398 15.612-10.398 83.597 0 334.4 0 334.4 0 22.857 0 41.557 17.963 41.557 39.919v124.624c0 21.955-18.701 39.921-41.557 39.921zM335.557 679.668c-19.014 0-36.381 1.449-51.61 4.308-38.682 7.26-65.268 21.391-81.278 43.194-14.345 19.54-18.735 43.63-13.052 71.603 9.955 48.941 44.168 75.893 96.329 75.893 11.039 0 23.162-1.225 36.035-3.642 32.748-6.146 74.633-24.186 112.046-48.255 63.475-40.841 66.615-66.231 63.454-81.778-4.646-22.845-26.876-39.168-67.951-49.907-27.751-7.254-62.004-11.417-93.973-11.417zM285.948 810.679c-20.201 0-27.143-5.422-30.955-24.174-3.119-15.332 0.815-20.687 2.104-22.447 5.401-7.359 19.471-13.496 39.62-17.275 10.872-2.042 24.306-3.121 38.836-3.121 31.951 0 60.1 4.651 78.778 9.739 1.359 0.369 3.47 1.914 1.208 3.208-24.418 19.11-69.092 44.628-106.329 51.618-8.675 1.623-16.504 2.452-23.262 2.452zM689.408 679.668c-31.97 0-66.227 4.163-93.978 11.417-41.079 10.736-63.305 27.063-67.951 49.904-3.157 15.547-0.026 40.937 63.458 81.778 37.406 24.070 79.292 42.109 112.043 48.255 12.877 2.417 24.998 3.642 36.028 3.642 52.173 0 86.383-26.955 96.329-75.896 5.692-27.97 1.301-52.060-13.043-71.6-16.013-21.807-42.594-35.934-81.289-43.194-15.219-2.854-32.589-4.305-51.597-4.305zM609.954 757.004c-2.167-1.207-1.118-3.112 0.004-3.424 18.671-5.157 47.117-9.921 79.441-9.921 14.537 0 27.964 1.079 38.839 3.121 20.147 3.781 34.223 9.915 39.62 17.274 1.297 1.76 5.231 7.115 2.103 22.447-3.806 18.752-10.752 24.174-30.959 24.174-6.754 0-14.575-0.826-23.258-2.455-37.239-6.987-81.374-32.103-105.792-51.216z" />
<glyph unicode="&#xe942;" glyph-name="lock-key" d="M796.446 576h-113.779v85.333c0 45.264-17.98 88.673-49.988 120.68-32.004 32.006-75.413 49.987-120.678 49.987s-88.673-17.981-120.68-49.987c-32.006-32.006-49.987-75.416-49.987-120.68v-85.333h-113.778c-15.088 0-29.558-5.994-40.227-16.662s-16.662-25.139-16.662-40.225v-398.225c0-15.087 5.994-29.555 16.662-40.226 10.669-10.667 25.139-16.661 40.227-16.661h568.89c15.087 0 29.555 5.995 40.226 16.661 10.667 10.671 16.661 25.139 16.661 40.226v398.225c0 15.087-5.995 29.556-16.661 40.225-10.671 10.668-25.139 16.662-40.226 16.662zM540.446 296.427v-90.206c0-7.543-2.999-14.775-8.333-20.113-5.333-5.333-12.57-8.329-20.113-8.329s-14.78 2.995-20.113 8.329c-5.333 5.338-8.333 12.57-8.333 20.113v90.206c-18.978 6.711-34.974 19.913-45.158 37.278-10.185 17.361-13.904 37.764-10.5 57.604s13.713 37.837 29.103 50.812c15.39 12.975 34.871 20.092 55.002 20.092s39.612-7.117 55.002-20.092c15.39-12.975 25.698-30.972 29.103-50.812s-0.316-40.243-10.5-57.604c-10.185-17.365-26.18-30.566-45.158-37.278zM625.779 576h-227.557v85.333c0 30.176 11.987 59.116 33.326 80.453s50.278 33.325 80.452 33.325c30.174 0 59.115-11.987 80.452-33.325s33.327-50.278 33.327-80.453v-85.333z" />
<glyph unicode="&#xe943;" glyph-name="logout" d="M447.987 96.004c0-8.486-3.371-16.627-9.37-22.63-6.003-5.999-14.141-9.37-22.628-9.37h-255.991c-8.487 0-16.626 3.371-22.627 9.37-6.001 6.003-9.372 14.144-9.372 22.63v703.976c0 8.486 3.371 16.625 9.372 22.627s14.14 9.372 22.627 9.372h255.991c8.487 0 16.625-3.371 22.628-9.372 5.999-6.001 9.37-14.14 9.37-22.627s-3.371-16.626-9.37-22.627c-6.003-6.001-14.141-9.372-22.628-9.372h-223.993v-639.981h223.993c8.487 0 16.625-3.371 22.628-9.37 5.999-6.003 9.37-14.14 9.37-22.626zM886.613 470.63l-159.996 159.995c-4.471 4.48-10.176 7.532-16.388 8.768-6.208 1.237-12.646 0.603-18.496-1.821-5.854-2.424-10.85-6.529-14.366-11.796s-5.393-11.458-5.385-17.791v-127.995h-255.994c-8.486 0-16.625-3.371-22.627-9.374-6.001-5.999-9.372-14.14-9.372-22.626s3.371-16.627 9.372-22.626c6.001-6.003 14.14-9.374 22.627-9.374h255.994v-127.996c-0.009-6.332 1.869-12.523 5.385-17.792 3.516-5.265 8.512-9.37 14.366-11.793 5.85-2.423 12.288-3.059 18.496-1.822 6.212 1.237 11.917 4.288 16.388 8.768l159.996 159.996c2.978 2.97 5.338 6.502 6.946 10.385 1.613 3.883 2.441 8.047 2.441 12.254s-0.828 8.367-2.441 12.254c-1.609 3.883-3.968 7.415-6.946 10.385z" />
<glyph unicode="&#xe944;" glyph-name="menu" d="M85.333 724.66c0 35.718 29.388 64.674 65.641 64.674h722.050c36.254 0 65.643-28.955 65.643-64.674s-29.389-64.674-65.643-64.674h-722.050c-36.253 0-65.641 28.955-65.641 64.674zM85.333 448c0 35.716 29.388 64.674 65.641 64.674h722.050c36.254 0 65.643-28.958 65.643-64.674s-29.389-64.674-65.643-64.674h-722.050c-36.253 0-65.641 28.958-65.641 64.674zM85.333 171.341c0 35.716 29.388 64.674 65.641 64.674h481.367c36.254 0 65.643-28.958 65.643-64.674 0-35.721-29.389-64.674-65.643-64.674h-481.367c-36.253 0-65.641 28.954-65.641 64.674z" />
<glyph unicode="&#xe945;" glyph-name="minus-fill" d="M832 832h-640c-16.974 0-33.253-6.743-45.255-18.745s-18.745-28.281-18.745-45.255v-640c0-16.973 6.743-33.254 18.745-45.257s28.281-18.743 45.255-18.743h640c16.973 0 33.254 6.741 45.257 18.743s18.743 28.284 18.743 45.257v640c0 16.974-6.741 33.253-18.743 45.255s-28.284 18.745-45.257 18.745zM736 416h-448c-8.487 0-16.626 3.371-22.627 9.374-6.001 5.999-9.373 14.14-9.373 22.626s3.372 16.627 9.373 22.626c6.001 6.003 14.141 9.374 22.627 9.374h448c8.486 0 16.627-3.371 22.626-9.374 6.003-5.999 9.374-14.14 9.374-22.626s-3.371-16.627-9.374-22.626c-5.999-6.003-14.14-9.374-22.626-9.374z" />
<glyph unicode="&#xe946;" glyph-name="phone" d="M938.172 230.054c-7.612-57.813-36.002-110.882-79.881-149.295-43.874-38.409-100.233-59.537-158.545-59.43-338.781 0-614.412 275.631-614.412 614.409-0.105 58.314 21.021 114.672 59.433 158.548s91.48 72.27 149.296 79.878c14.62 1.785 29.425-1.206 42.206-8.527s22.851-18.578 28.707-32.093l90.115-201.177v-0.512c4.48-10.345 6.332-21.639 5.389-32.874-0.947-11.235-4.659-22.061-10.807-31.511-0.768-1.152-1.579-2.219-2.432-3.285l-88.835-105.305c31.958-64.939 99.886-132.267 165.678-164.309l103.851 88.363c1.020 0.858 2.091 1.655 3.2 2.389 9.442 6.298 20.305 10.142 31.607 11.183 11.302 1.045 22.686-0.747 33.122-5.21l0.555-0.256 201.003-90.069c13.538-5.837 24.823-15.898 32.171-28.681 7.343-12.783 10.355-27.597 8.58-42.236z" />
<glyph unicode="&#xe947;" glyph-name="piggy-bank" d="M862.967 585.499c-1.378 3.441-2.82 6.882-4.301 10.323-22.199 51.199-58.129 95.26-103.812 127.312h73.707c7.3 0 14.302 2.9 19.465 8.062 5.158 5.162 8.060 12.164 8.060 19.465s-2.901 14.302-8.060 19.465c-5.163 5.162-12.164 8.062-19.465 8.062h-357.85c-76.111-0.097-149.399-28.812-205.315-80.445s-90.37-122.406-96.519-198.266c-23.777-5.909-44.905-19.584-60.036-38.852-15.132-19.273-23.404-43.038-23.508-67.537 0-7.3 2.9-14.302 8.062-19.465s12.164-8.064 19.465-8.064c7.301 0 14.302 2.901 19.465 8.064s8.062 12.164 8.062 19.465c0.006 10.035 2.757 19.883 7.955 28.467 5.197 8.589 12.643 15.59 21.533 20.254 6.852-61.76 32.604-119.898 73.738-166.468l43.217-120.981c3.821-10.701 10.859-19.959 20.149-26.5s20.377-10.048 31.739-10.039h43.768c11.357-0.004 22.436 3.507 31.719 10.048 9.283 6.545 16.314 15.795 20.133 26.492l6.609 18.513h197.158l6.609-18.513c3.819-10.697 10.85-19.947 20.134-26.492 9.284-6.541 20.361-10.052 31.718-10.048h43.767c11.358-0.004 22.438 3.507 31.718 10.048 9.284 6.545 16.316 15.795 20.134 26.492l55.778 156.147h8.119c21.901 0 42.906 8.7 58.394 24.188 15.488 15.484 24.188 36.489 24.188 58.394v110.106c0.004 20.715-7.778 40.67-21.798 55.915s-33.259 24.665-53.901 26.391zM608.346 640.828h-137.634c-7.305 0-14.302 2.9-19.465 8.063s-8.064 12.164-8.064 19.465c0 7.3 2.901 14.302 8.064 19.464s12.16 8.063 19.465 8.063h137.634c7.3 0 14.302-2.9 19.465-8.063s8.060-12.164 8.060-19.464c0-7.301-2.897-14.302-8.060-19.465s-12.164-8.063-19.465-8.063zM704.687 448.141c-8.166 0-16.149 2.419-22.938 6.959-6.793 4.535-12.083 10.987-15.206 18.53-3.127 7.543-3.947 15.846-2.351 23.855 1.591 8.009 5.525 15.369 11.298 21.141 5.777 5.777 13.133 9.707 21.141 11.302 8.013 1.591 16.311 0.777 23.859-2.351 7.543-3.123 13.99-8.418 18.53-15.206 4.535-6.793 6.959-14.775 6.959-22.942 0-10.948-4.352-21.453-12.096-29.197s-18.244-12.092-29.197-12.092z" />
<glyph unicode="&#xe948;" glyph-name="play" d="M512 874.667c-235.279 0-426.667-191.407-426.667-426.667s191.388-426.667 426.667-426.667c235.277 0 426.667 191.407 426.667 426.667s-191.39 426.667-426.667 426.667zM681.617 433.050l-248.887-160c-2.914-1.89-6.285-2.829-9.618-2.829-2.917 0-5.868 0.73-8.507 2.172-5.73 3.123-9.271 9.097-9.271 15.607v320c0 6.51 3.542 12.483 9.271 15.608 5.625 3.090 12.672 2.9 18.125-0.66l248.887-159.998c5.073-3.264 8.162-8.909 8.162-14.95s-3.089-11.682-8.162-14.95z" />
<glyph unicode="&#xe949;" glyph-name="plus-fill" d="M832 832h-640c-16.974 0-33.253-6.743-45.255-18.745s-18.745-28.281-18.745-45.255v-640c0-16.973 6.743-33.254 18.745-45.257s28.281-18.743 45.255-18.743h640c16.973 0 33.254 6.741 45.257 18.743s18.743 28.284 18.743 45.257v640c0 16.974-6.741 33.253-18.743 45.255s-28.284 18.745-45.257 18.745zM736 416h-192v-192c0-8.486-3.371-16.627-9.374-22.626-5.999-6.003-14.14-9.374-22.626-9.374s-16.627 3.371-22.626 9.374c-6.003 5.999-9.374 14.14-9.374 22.626v192h-192c-8.487 0-16.626 3.371-22.627 9.374-6.001 5.999-9.373 14.14-9.373 22.626s3.372 16.627 9.373 22.626c6.001 6.003 14.141 9.374 22.627 9.374h192v192c0 8.487 3.371 16.626 9.374 22.627 5.999 6.001 14.14 9.373 22.626 9.373s16.627-3.372 22.626-9.373c6.003-6.001 9.374-14.141 9.374-22.627v-192h192c8.486 0 16.627-3.371 22.626-9.374 6.003-5.999 9.374-14.14 9.374-22.626s-3.371-16.627-9.374-22.626c-5.999-6.003-14.14-9.374-22.626-9.374z" />
</font>
</defs>
</svg>
